<?xml version="1.0" standalone="no"?>
<!DOCTYPE svg PUBLIC "-//W3C//DTD SVG 1.1//EN" "http://www.w3.org/Graphics/SVG/1.1/DTD/svg11.dtd" >
<svg xmlns="http://www.w3.org/2000/svg" width="100%" height="100%">
<metadata>
Created by FontXChange 20110222 at Thu Nov 19 10:49:03 2015
 By Jason Coe
Copyright 1990 as an unpublished work by Bitstream Inc.  All rights reserved.  Confidential.
</metadata>
<defs>
<font id="AvantGardeITCbyBT-Bold" horiz-adv-x="500" >
  <font-face 
    font-family="ITC Avant Garde Gothic"
    font-weight="700"
    font-stretch="normal"
    units-per-em="1000"
    panose-1="2 0 8 3 0 0 0 0 0 0"
    ascent="800"
    descent="-200"
    x-height="537"
    cap-height="711"
    bbox="-167 -236 1227 963"
    underline-thickness="120"
    underline-position="-108"
    stemh="150"
    stemv="147"
    unicode-range="U+0020-FB02"
  />
    <missing-glyph />
    <glyph glyph-name="space" unicode=" " horiz-adv-x="297" 
 />
    <glyph glyph-name="exclam" unicode="!" horiz-adv-x="315" 
d="M237 0h-158v164h158v-164zM238 234h-161v477h161v-477z" />
    <glyph glyph-name="quotedbl" unicode="&#x22;" horiz-adv-x="331" 
d="M39 702h94v-273h-94v273zM198 702h94v-273h-94v273z" />
    <glyph glyph-name="numbersign" unicode="#" horiz-adv-x="769" 
d="M346 715h108l-71 -203h118l72 203h108l-72 -203h138l-36 -98h-137l-41 -118h142l-35 -98h-142l-72 -203h-108l72 203h-119l-73 -203h-107l71 203h-140l37 98h138l42 118h-146l36 98h145zM346 414l-43 -118h123l42 118h-122z" />
    <glyph glyph-name="dollar" unicode="$" horiz-adv-x="595" 
d="M356 2v-117h-115v115c-112 20 -175 91 -183 208h179c3 -40 24 -61 61 -61c34 0 54 22 54 59c0 46 -33 58 -87 79c-64 25 -118 45 -156 88c-31 35 -48 84 -48 129c0 112 63 185 180 207v109h115v-110c99 -15 156 -85 156 -192v-3h-163c-1 40 -20 61 -54 61
c-35 0 -56 -23 -56 -56c0 -43 38 -60 107 -87c129 -50 191 -111 191 -219c0 -101 -70 -185 -181 -210z" />
    <glyph glyph-name="percent" unicode="%" horiz-adv-x="845" 
d="M564 726h90l-380 -741h-90zM573 160c0 -36 28 -65 64 -65s65 29 65 65s-29 64 -65 64s-64 -28 -64 -64zM464 160c0 47 18 91 51 124s77 51 124 51s91 -18 124 -51s51 -77 51 -124c0 -48 -18 -91 -51 -124s-77 -51 -124 -51s-91 18 -124 51s-51 77 -51 124zM135 550
c0 -36 28 -65 64 -65s65 29 65 65s-29 64 -65 64s-64 -28 -64 -64zM26 550c0 47 18 91 51 124s77 51 124 51s91 -18 124 -51s51 -77 51 -124c0 -48 -18 -91 -51 -124s-77 -51 -124 -51s-91 18 -124 51s-51 77 -51 124z" />
    <glyph glyph-name="ampersand" unicode="&#x26;" horiz-adv-x="694" 
d="M468 67c-60 -56 -127 -81 -212 -81c-140 0 -232 91 -232 208c0 75 42 131 128 193c-42 54 -62 105 -62 150c0 108 79 188 194 188c109 0 188 -79 188 -170c0 -59 -32 -119 -94 -170l79 -79l51 110h161c-37 -101 -73 -176 -104 -226l92 -96l-108 -110zM285 466
c28 29 42 55 42 84c0 26 -16 43 -40 43c-26 0 -44 -19 -44 -47c0 -26 15 -56 42 -80zM362 180l-109 109c-40 -22 -60 -52 -60 -83c0 -39 32 -69 77 -69c32 0 59 16 92 43z" />
    <glyph glyph-name="quoteright" unicode="&#x2019;" horiz-adv-x="255" 
d="M216 711v-184c0 -98 -44 -144 -139 -144c-8 0 -16 0 -24 1v82h9c46 0 58 21 58 75v6h-67v164h163z" />
    <glyph glyph-name="parenleft" unicode="(" horiz-adv-x="312" 
d="M44 397c0 98 4 172 75 246c52 54 114 82 188 82v-147c-106 -6 -113 -66 -113 -201v-248c0 -136 8 -197 113 -201v-147c-74 0 -135 28 -188 82c-69 72 -75 145 -75 246v288z" />
    <glyph glyph-name="parenright" unicode=")" horiz-adv-x="312" 
d="M268 397v-288c0 -101 -5 -174 -74 -246c-53 -54 -115 -82 -189 -82v147c105 4 114 65 114 201v248c0 135 -8 195 -114 201v147c74 0 137 -28 189 -82c71 -74 74 -148 74 -246z" />
    <glyph glyph-name="asterisk" unicode="*" 
d="M250 409l-84 -123l-95 67l96 117l-136 37l35 109l130 -46v141h108v-141l130 46l35 -109l-136 -37l95 -117l-94 -67z" />
    <glyph glyph-name="plus" unicode="+" horiz-adv-x="833" 
d="M367 596h99v-249h243v-97h-243v-250h-99v250h-243v97h243v249z" />
    <glyph glyph-name="comma" unicode="," horiz-adv-x="297" 
d="M69 -162v81c5 0 10 -1 14 -1c43 0 54 18 54 69v13h-68v164h159v-188c0 -94 -44 -139 -133 -139c-9 0 -17 0 -26 1z" />
    <glyph glyph-name="hyphen" unicode="-" horiz-adv-x="350" 
d="M308 197h-269v143h269v-143z" />
    <glyph glyph-name="period" unicode="." horiz-adv-x="297" 
d="M230 0h-162v164h162v-164z" />
    <glyph glyph-name="slash" unicode="/" horiz-adv-x="278" 
d="M63 -93h-94l227 804h95z" />
    <glyph glyph-name="zero" unicode="0" horiz-adv-x="595" 
d="M382 238v234c0 61 -33 94 -82 94c-53 0 -85 -32 -85 -95v-232c0 -63 32 -95 85 -95c49 0 82 33 82 94zM553 239c0 -147 -111 -253 -256 -253c-146 0 -256 106 -256 253v232c0 147 111 254 256 254s256 -107 256 -254v-232z" />
    <glyph glyph-name="one" unicode="1" horiz-adv-x="595" 
d="M408 0h-166v579h-125v132h291v-711z" />
    <glyph glyph-name="two" unicode="2" horiz-adv-x="595" 
d="M548 0h-492v151c209 124 313 242 313 342c0 50 -26 79 -69 79c-44 0 -73 -37 -73 -102c0 -5 1 -11 1 -16h-176c1 164 98 267 249 267c155 0 249 -85 249 -209c0 -115 -84 -245 -251 -353h249v-159z" />
    <glyph glyph-name="three" unicode="3" horiz-adv-x="595" 
d="M47 214h175v-9c0 -42 27 -67 78 -67c47 0 76 30 76 74c0 53 -40 79 -121 79c-11 0 -23 0 -35 -1v134c6 0 12 -1 18 -1c74 0 111 29 111 87c0 43 -22 69 -57 69c-34 0 -54 -21 -54 -59v-11h-170v2c0 131 87 214 226 214c130 0 215 -82 215 -197c0 -66 -33 -120 -101 -144
c91 -26 139 -84 139 -165c0 -131 -98 -233 -248 -233c-161 0 -251 82 -252 228z" />
    <glyph glyph-name="four" unicode="4" horiz-adv-x="595" 
d="M347 263l6 237l-154 -237h148zM504 0h-169v128h-304v135l304 448h169v-441h69v-142h-69v-128z" />
    <glyph glyph-name="five" unicode="5" horiz-adv-x="595" 
d="M25 192h183c13 -28 46 -47 79 -47c59 0 102 41 102 101c0 51 -41 93 -97 93c-46 0 -77 -21 -96 -66l-144 40l65 398h389v-142h-251l-23 -108c30 18 64 27 101 27c137 0 233 -101 233 -245c0 -157 -101 -258 -279 -258c-139 0 -231 73 -262 207z" />
    <glyph glyph-name="six" unicode="6" horiz-adv-x="595" 
d="M199 250c0 -53 41 -96 93 -96c55 0 99 45 99 100c0 56 -38 95 -93 95c-61 0 -99 -40 -99 -99zM276 711h194l-162 -224c20 4 38 5 56 5c112 0 203 -101 203 -236c0 -152 -112 -270 -266 -270c-81 0 -142 25 -196 81c-45 47 -74 118 -74 187c0 95 43 153 89 222z" />
    <glyph glyph-name="seven" unicode="7" horiz-adv-x="595" 
d="M365 554h-299v157h465v-157l-242 -554h-185z" />
    <glyph glyph-name="eight" unicode="8" horiz-adv-x="595" 
d="M233 511c0 -36 27 -64 62 -64c40 0 67 27 67 64c0 38 -26 66 -65 66c-38 0 -64 -26 -64 -66zM159 388c-53 30 -81 75 -81 142c0 114 89 195 218 195c135 0 221 -79 221 -194c0 -63 -27 -110 -82 -144c74 -21 121 -90 121 -175c0 -129 -102 -227 -256 -227
c-163 0 -261 91 -261 225c0 85 42 148 120 178zM209 227c0 -50 36 -83 90 -83c52 0 90 35 90 82c0 50 -38 86 -95 86c-46 0 -85 -35 -85 -85z" />
    <glyph glyph-name="nine" unicode="9" horiz-adv-x="595" 
d="M323 -5h-194l162 224c-20 -4 -38 -5 -56 -5c-112 0 -203 101 -203 236c0 152 112 270 266 270c81 0 142 -25 196 -81c45 -47 74 -118 74 -187c0 -95 -43 -153 -89 -222zM400 456c0 53 -41 96 -93 96c-55 0 -98 -45 -98 -100c0 -56 37 -95 92 -95c61 0 99 40 99 99z" />
    <glyph glyph-name="colon" unicode=":" horiz-adv-x="316" 
d="M237 0h-162v164h162v-164zM237 348h-162v165h162v-165z" />
    <glyph glyph-name="semicolon" unicode=";" horiz-adv-x="316" 
d="M77 -162v81c5 0 9 -1 14 -1c42 0 52 19 52 74v8h-66v164h157v-188c0 -94 -43 -139 -132 -139c-8 0 -16 0 -25 1zM74 348v165h162v-165h-162z" />
    <glyph glyph-name="less" unicode="&#x3c;" horiz-adv-x="833" 
d="M704 583v-107l-436 -178l436 -178v-107l-575 237v97z" />
    <glyph glyph-name="equal" unicode="=" horiz-adv-x="833" 
d="M124 452h585v-97h-585v97zM124 242h585v-97h-585v97z" />
    <glyph glyph-name="greater" unicode="&#x3e;" horiz-adv-x="833" 
d="M129 583l575 -236v-97l-575 -237v107l437 178l-437 178v107z" />
    <glyph glyph-name="question" unicode="?" horiz-adv-x="535" 
d="M311 223h-169c0 4 -1 8 -1 12c0 48 29 89 78 140c48 50 88 82 88 135c0 36 -23 58 -59 58c-38 0 -59 -28 -59 -81v-11h-171v14c0 139 103 235 248 235c134 0 228 -89 228 -211c0 -67 -27 -113 -83 -165c-51 -48 -97 -76 -100 -126zM308 0h-162v163h162v-163z" />
    <glyph glyph-name="at" unicode="@" horiz-adv-x="1000" 
d="M594 342c-8 53 -38 81 -85 81c-73 0 -138 -91 -138 -206c0 -60 27 -92 77 -92c52 0 103 42 120 111zM570 133c-36 -55 -82 -80 -145 -80c-104 0 -158 58 -158 166c0 158 105 275 236 275c53 0 91 -22 115 -64l26 48h87l-72 -292c-2 -8 -3 -15 -3 -20c0 -22 15 -34 46 -34
c24 0 53 12 79 37c56 52 85 123 85 206c0 152 -128 268 -324 268c-92 0 -171 -22 -236 -66c-110 -74 -172 -189 -172 -322c0 -200 146 -329 371 -329c106 0 209 33 295 93l40 -57c-100 -75 -212 -113 -333 -113c-127 0 -232 33 -312 94c-101 78 -151 180 -151 311
c0 109 35 209 101 290c96 117 233 179 400 179c113 0 212 -32 281 -85c88 -68 131 -155 131 -265c0 -108 -44 -201 -124 -265c-46 -37 -101 -56 -158 -56c-69 0 -104 27 -105 81z" />
    <glyph glyph-name="A" unicode="A" horiz-adv-x="602" 
d="M183 103l-36 -103h-190l273 711h142l273 -711h-192l-35 103h-235zM371 250l-70 228l-71 -228h141z" />
    <glyph glyph-name="B" unicode="B" horiz-adv-x="586" 
d="M56 0v711h243c145 0 220 -63 220 -175c0 -74 -27 -121 -89 -152c82 -25 122 -78 122 -164c0 -67 -24 -126 -69 -167c-52 -47 -117 -53 -211 -53h-216zM224 149h59c66 0 97 16 97 74c0 60 -31 76 -100 76h-56v-150zM224 435h42c65 0 95 14 95 60c0 47 -26 67 -80 67h-57
v-127z" />
    <glyph glyph-name="C" unicode="C" horiz-adv-x="771" 
d="M742 264c-47 -173 -182 -278 -353 -278c-105 0 -194 39 -264 113c-67 71 -101 159 -101 264c0 98 37 188 108 257c70 69 158 105 259 105c166 0 308 -109 354 -284h-188c-38 70 -95 107 -165 107c-106 0 -189 -82 -189 -186c0 -113 88 -200 186 -200c67 0 126 36 164 102
h189z" />
    <glyph glyph-name="D" unicode="D" horiz-adv-x="697" 
d="M323 0h-267v711h243c113 0 192 -15 266 -85c68 -64 104 -157 104 -274c0 -108 -35 -197 -103 -264c-76 -74 -143 -88 -243 -88zM300 156c133 0 196 62 196 202c0 128 -69 200 -197 200h-69v-402h70z" />
    <glyph glyph-name="E" unicode="E" horiz-adv-x="495" 
d="M441 0h-386v711h386v-157h-212v-115h212v-158h-212v-124h212v-157z" />
    <glyph glyph-name="F" unicode="F" horiz-adv-x="491" 
d="M55 0v711h386v-157h-212v-114h212v-160h-212v-280h-174z" />
    <glyph glyph-name="G" unicode="G" horiz-adv-x="778" 
d="M751 400c1 -16 2 -32 2 -47c0 -80 -20 -148 -61 -208c-68 -99 -182 -159 -303 -159c-105 0 -194 39 -264 113c-67 71 -101 159 -101 264c0 98 38 188 108 257s158 105 259 105c152 0 285 -93 342 -245h-198c-44 46 -90 69 -146 69c-104 0 -186 -85 -186 -187
c0 -113 88 -200 186 -200c66 0 125 34 160 96h-203v142h405z" />
    <glyph glyph-name="H" unicode="H" horiz-adv-x="639" 
d="M408 0v272h-178v-272h-174v711h174v-270h178v270h175v-711h-175z" />
    <glyph glyph-name="I" unicode="I" horiz-adv-x="287" 
d="M230 0h-174v711h174v-711z" />
    <glyph glyph-name="J" unicode="J" horiz-adv-x="513" 
d="M459 291c0 -87 -3 -151 -31 -201c-41 -73 -103 -103 -199 -103c-142 0 -223 86 -223 238v3h172v-4c0 -48 18 -72 54 -72c40 0 52 28 52 86v473h175v-420z" />
    <glyph glyph-name="K" unicode="K" horiz-adv-x="604" 
d="M231 0h-175v711h175v-335l210 335h193l-234 -362l227 -349h-210l-186 308v-308z" />
    <glyph glyph-name="L" unicode="L" horiz-adv-x="437" 
d="M431 0h-376v711h173v-554h203v-157z" />
    <glyph glyph-name="M" unicode="M" horiz-adv-x="859" 
d="M221 0h-165v711h238l136 -435l137 435h237v-711h-166v470l-147 -470h-123l-147 470v-470z" />
    <glyph glyph-name="N" unicode="N" horiz-adv-x="706" 
d="M231 0h-174v711h157l261 -395v395h174v-711h-153l-265 396v-396z" />
    <glyph glyph-name="O" unicode="O" horiz-adv-x="787" 
d="M28 363c0 98 38 188 108 257s158 104 259 104c95 0 185 -37 254 -105c72 -71 110 -162 110 -259c0 -102 -36 -193 -103 -262c-69 -72 -163 -111 -262 -111c-105 0 -195 38 -265 112c-67 71 -101 159 -101 264zM207 361c0 -112 89 -198 187 -198c102 0 185 82 185 198
c0 104 -83 187 -183 187c-106 0 -189 -83 -189 -187z" />
    <glyph glyph-name="P" unicode="P" horiz-adv-x="602" 
d="M231 0h-174v711h236c75 0 132 -5 180 -39c63 -44 96 -111 96 -200c0 -92 -42 -168 -113 -211c-45 -27 -101 -32 -175 -32h-50v-229zM233 383h32c86 0 128 22 128 86c0 59 -37 83 -114 83h-46v-169z" />
    <glyph glyph-name="Q" unicode="Q" horiz-adv-x="787" 
d="M782 -18c-23 -1 -40 -2 -49 -2c-63 0 -107 17 -146 63c-63 -38 -130 -57 -200 -57c-77 0 -149 24 -210 70c-97 73 -149 179 -149 307c0 99 38 188 108 257s158 104 259 104c95 0 185 -37 254 -105c72 -71 110 -161 110 -262c0 -80 -22 -151 -64 -210
c22 -14 43 -20 67 -20c6 0 13 0 20 1v-146zM460 165c-38 69 -99 113 -181 113c-19 0 -37 -4 -54 -12c42 -72 103 -110 172 -110c16 0 38 3 63 9zM553 256c18 32 26 66 26 105c0 104 -83 187 -183 187c-96 0 -172 -64 -189 -168c32 19 65 29 100 29c90 0 185 -55 246 -153z
" />
    <glyph glyph-name="R" unicode="R" horiz-adv-x="606" 
d="M231 0h-174v711h236c75 0 132 -5 180 -39c63 -44 96 -111 96 -199c0 -115 -60 -201 -161 -229l174 -244h-215l-136 229v-229zM231 383h34c86 0 128 22 128 86c0 59 -37 83 -114 83h-48v-169z" />
    <glyph glyph-name="S" unicode="S" horiz-adv-x="535" 
d="M25 234h166v-8c0 -58 22 -86 65 -86c42 0 67 22 67 59c0 65 -49 70 -127 105c-106 48 -160 117 -160 203c0 127 98 218 242 218c128 0 216 -82 216 -209v-11h-160c0 44 -24 69 -65 69c-32 0 -55 -22 -55 -53c0 -53 52 -64 143 -111c97 -50 144 -113 144 -198
c0 -124 -102 -226 -234 -226c-158 0 -242 80 -242 232v16z" />
    <glyph glyph-name="T" unicode="T" horiz-adv-x="440" 
d="M310 0h-174v546h-132v165h441v-165h-135v-546z" />
    <glyph glyph-name="U" unicode="U" horiz-adv-x="635" 
d="M55 711h175v-438c0 -80 25 -121 84 -121c61 0 90 40 90 121v438h174v-445c0 -174 -106 -277 -265 -277c-161 0 -258 99 -258 277v445z" />
    <glyph glyph-name="V" unicode="V" horiz-adv-x="584" 
d="M384 0h-188l-220 711h180l134 -476l134 476h180z" />
    <glyph glyph-name="W" unicode="W" horiz-adv-x="884" 
d="M332 0h-160l-192 711h188l95 -407l102 407h154l101 -407l96 407h187l-192 -711h-160l-109 397z" />
    <glyph glyph-name="X" unicode="X" horiz-adv-x="620" 
d="M158 0h-192l237 369l-202 342h199l129 -220l133 220h192l-234 -360l222 -351h-210l-137 226z" />
    <glyph glyph-name="Y" unicode="Y" horiz-adv-x="514" 
d="M342 0h-175v263l-202 448h191l103 -261l108 261h182l-207 -448v-263z" />
    <glyph glyph-name="Z" unicode="Z" horiz-adv-x="493" 
d="M467 0h-451v128l261 428h-254v155h446v-155l-243 -401h241v-155z" />
    <glyph glyph-name="bracketleft" unicode="[" horiz-adv-x="312" 
d="M283 -87v-113h-232v911h232v-112h-84v-686h84z" />
    <glyph glyph-name="backslash" unicode="\" horiz-adv-x="278" 
d="M227 -93l-227 804h95l227 -804h-95z" />
    <glyph glyph-name="bracketright" unicode="]" horiz-adv-x="312" 
d="M29 -86h84v685h-84v112h233v-911h-233v114z" />
    <glyph glyph-name="asciicircum" unicode="^" horiz-adv-x="1000" 
d="M438 713h123l235 -274h-115l-181 181l-182 -181h-115z" />
    <glyph glyph-name="underscore" unicode="_" 
d="M0 -136h500v-100h-500v100z" />
    <glyph glyph-name="quoteleft" unicode="&#x2018;" horiz-adv-x="255" 
d="M48 398v184c0 98 44 144 139 144c8 0 16 0 24 -1v-82h-9c-46 0 -58 -21 -58 -75v-6h67v-164h-163z" />
    <glyph glyph-name="a" unicode="a" horiz-adv-x="648" 
d="M442 0v60c-47 -46 -95 -63 -159 -63c-65 0 -121 21 -168 63c-62 55 -94 127 -94 211c0 77 30 146 86 200c50 49 111 74 179 74c65 0 115 -22 151 -68v60h158v-537h-153zM179 272c0 -75 58 -132 139 -132c68 0 125 56 125 130c0 77 -57 135 -131 135
c-75 0 -133 -61 -133 -133z" />
    <glyph glyph-name="b" unicode="b" horiz-adv-x="648" 
d="M206 60v-60h-153v711h159v-234c33 43 82 68 150 68s129 -25 179 -74c56 -54 86 -123 86 -200c0 -84 -32 -156 -94 -211c-47 -42 -103 -63 -168 -63c-64 0 -112 17 -159 63zM205 270c0 -74 57 -130 125 -130c81 0 139 57 139 132c0 72 -59 133 -134 133
c-74 0 -130 -58 -130 -135z" />
    <glyph glyph-name="c" unicode="c" horiz-adv-x="604" 
d="M409 192h169c-40 -129 -144 -206 -275 -206c-82 0 -148 28 -203 86c-52 55 -79 125 -79 200s29 143 82 197c55 56 121 84 198 84c135 0 234 -74 277 -210h-167c-22 37 -59 57 -111 57c-71 0 -123 -54 -123 -128c0 -82 52 -133 128 -133c43 0 78 18 104 53z" />
    <glyph glyph-name="d" unicode="d" horiz-adv-x="648" 
d="M179 272c0 -75 58 -132 139 -132c68 0 125 56 125 130c0 77 -57 135 -131 135c-75 0 -133 -61 -133 -133zM442 0v60c-47 -46 -95 -63 -159 -63c-65 0 -121 21 -168 63c-62 55 -94 127 -94 211c0 77 30 146 86 200c50 49 111 74 179 74c65 0 115 -22 151 -68v234h158v-711
h-153z" />
    <glyph glyph-name="e" unicode="e" horiz-adv-x="609" 
d="M179 325h251c-19 55 -64 85 -127 85c-66 0 -113 -34 -124 -85zM390 156h174c-52 -112 -141 -169 -261 -169c-82 0 -148 28 -203 86c-52 55 -79 123 -79 199c0 75 29 144 82 197c54 54 125 84 198 84c171 0 288 -123 288 -323v-17h-405c14 -57 55 -87 124 -87
c32 0 58 9 82 30z" />
    <glyph glyph-name="f" unicode="f" horiz-adv-x="312" 
d="M70 417h-58v120h58c0 7 -1 14 -1 20c0 115 62 167 194 167c8 0 16 -1 25 -1v-108h-4c-48 0 -59 -16 -59 -65v-13h63v-120h-63v-417h-155v417z" />
    <glyph glyph-name="g" unicode="g" horiz-adv-x="648" 
d="M195 272c0 -75 57 -134 129 -134c70 0 125 57 125 132c0 78 -57 134 -121 134c-78 0 -133 -59 -133 -132zM442 56c-44 -40 -89 -59 -145 -59c-144 0 -253 118 -253 274c0 77 28 146 82 200c49 49 106 74 172 74c62 0 110 -23 145 -68v60h152v-482c0 -71 0 -128 -42 -183
c-51 -66 -127 -99 -227 -99c-142 0 -240 72 -260 184h176c10 -34 42 -55 89 -55c70 0 112 45 112 127c0 9 0 18 -1 27z" />
    <glyph glyph-name="h" unicode="h" horiz-adv-x="588" 
d="M207 0h-155v711h151v-241c33 52 83 77 151 77c111 0 183 -70 183 -193v-354h-158v291c0 75 -16 109 -77 109c-62 0 -95 -37 -95 -109v-291z" />
    <glyph glyph-name="i" unicode="i" horiz-adv-x="278" 
d="M217 586h-157v125h157v-125zM217 0h-157v537h157v-537z" />
    <glyph glyph-name="j" unicode="j" horiz-adv-x="278" 
d="M217 25c0 -156 -32 -218 -183 -218c-9 0 -23 1 -40 2v126c61 0 66 25 66 94v508h157v-512zM217 586h-157v125h157v-125z" />
    <glyph glyph-name="k" unicode="k" horiz-adv-x="532" 
d="M60 711h154v-377l161 203h189l-212 -239l197 -298h-190l-145 247v-247h-154v711z" />
    <glyph glyph-name="l" unicode="l" horiz-adv-x="278" 
d="M60 711h157v-711h-157v711z" />
    <glyph glyph-name="m" unicode="m" horiz-adv-x="893" 
d="M201 0h-150v537h143v-72c33 55 81 82 146 82s114 -28 149 -86c56 59 99 86 166 86c121 0 189 -68 189 -193v-354h-154v291c0 75 -16 109 -75 109c-60 0 -92 -37 -92 -109v-291h-155v291c0 75 -16 109 -75 109c-60 0 -92 -37 -92 -109v-291z" />
    <glyph glyph-name="n" unicode="n" horiz-adv-x="588" 
d="M207 0h-155v537h150l-2 -72c33 54 83 82 154 82c111 0 183 -70 183 -193v-354h-158v291c0 75 -16 109 -77 109c-62 0 -95 -37 -95 -109v-291z" />
    <glyph glyph-name="o" unicode="o" horiz-adv-x="609" 
d="M177 268c0 -73 58 -132 127 -132c70 0 127 59 127 132c0 74 -57 133 -127 133s-127 -59 -127 -133zM21 270c0 75 29 144 82 197c54 54 125 84 198 84c78 0 145 -27 199 -78c57 -54 88 -128 88 -201c0 -81 -27 -148 -81 -202c-55 -55 -123 -84 -204 -84
c-82 0 -148 28 -203 86c-52 54 -79 123 -79 198z" />
    <glyph glyph-name="p" unicode="p" horiz-adv-x="648" 
d="M205 269c0 -77 56 -135 130 -135c75 0 134 61 134 133c0 75 -58 132 -139 132c-68 0 -125 -56 -125 -130zM211 62v-236h-158v711h150v-63c46 49 95 68 162 68c65 0 121 -21 168 -63c62 -55 94 -127 94 -211c0 -77 -30 -147 -86 -201c-50 -49 -111 -73 -179 -73
c-65 0 -115 22 -151 68z" />
    <glyph glyph-name="q" unicode="q" horiz-adv-x="648" 
d="M440 -174v236c-36 -46 -87 -68 -152 -68c-68 0 -129 24 -179 73c-56 54 -85 124 -85 201c0 84 32 156 94 211c47 42 103 63 168 63c67 0 115 -19 161 -68l-3 63h154v-711h-158zM182 267c0 -72 58 -133 133 -133c74 0 131 58 131 135c0 74 -58 130 -126 130
c-81 0 -138 -57 -138 -132z" />
    <glyph glyph-name="r" unicode="r" horiz-adv-x="350" 
d="M52 537h150v-73c26 54 71 81 135 81v-146h-4c-100 0 -121 -34 -121 -133v-266h-160v537z" />
    <glyph glyph-name="s" unicode="s" horiz-adv-x="472" 
d="M21 160h149v-5c0 -30 24 -51 58 -51s54 17 54 47c0 44 -43 42 -110 63c-93 29 -138 79 -138 160c0 105 77 179 205 179c111 0 182 -63 188 -165h-143c-6 35 -19 50 -47 50c-31 0 -49 -18 -49 -44c0 -37 33 -46 88 -61c110 -30 165 -72 165 -161
c0 -108 -85 -186 -215 -186c-120 0 -194 65 -205 174z" />
    <glyph glyph-name="t" unicode="t" horiz-adv-x="312" 
d="M75 419h-68v118h68v174h160v-174h71v-118h-71v-419h-160v419z" />
    <glyph glyph-name="u" unicode="u" horiz-adv-x="588" 
d="M380 537h155v-537h-147v72c-34 -56 -85 -82 -154 -82c-111 0 -184 70 -184 193v354h159v-291c0 -75 16 -109 77 -109c62 0 94 37 94 109v291z" />
    <glyph glyph-name="v" unicode="v" horiz-adv-x="505" 
d="M331 0h-159l-192 537h173l100 -347l106 347h167z" />
    <glyph glyph-name="w" unicode="w" horiz-adv-x="752" 
d="M620 0h-146l-90 315l-91 -315h-144l-162 537h161l81 -319l86 319h137l88 -319l82 319h160z" />
    <glyph glyph-name="x" unicode="x" horiz-adv-x="546" 
d="M151 0h-179l199 293l-174 244h193l90 -138l87 138h169l-174 -258l205 -279h-198l-112 168z" />
    <glyph glyph-name="y" unicode="y" horiz-adv-x="532" 
d="M262 -174h-159l81 207l-197 504h175l101 -313l114 313h170z" />
    <glyph glyph-name="z" unicode="z" horiz-adv-x="442" 
d="M417 0h-403v112l221 286h-221v139h399v-127l-195 -271h199v-139z" />
    <glyph glyph-name="braceleft" unicode="{" 
d="M431 721v-102c-8 0 -16 1 -23 1c-72 0 -84 -25 -84 -98v-117c0 -88 -18 -127 -101 -146c83 -19 101 -57 101 -145v-118c0 -73 12 -97 84 -97c7 0 15 1 23 1v-102c-13 0 -25 -1 -37 -1c-60 0 -104 6 -137 24c-47 27 -51 71 -51 142v123c0 88 -29 123 -109 123
c-6 0 -13 -1 -20 -1v102c7 0 14 -1 20 -1c80 0 109 36 109 124v122c0 71 4 116 51 143c33 18 77 24 137 24c12 0 24 -1 37 -1z" />
    <glyph glyph-name="bar" unicode="|" 
d="M200 764h101v-1000h-101v1000z" />
    <glyph glyph-name="braceright" unicode="}" 
d="M70 721h33c62 0 108 -5 141 -24c46 -26 51 -71 51 -142v-123c0 -88 29 -123 109 -123c6 0 13 1 20 1v-102h-18c-82 0 -111 -33 -111 -122v-123c0 -71 -4 -116 -51 -142c-33 -18 -77 -24 -137 -24c-12 0 -24 1 -37 1v102c8 0 16 -1 23 -1c71 0 84 24 84 97v117
c0 88 17 127 101 146c-83 19 -101 58 -101 146v118c0 73 -13 97 -84 97c-7 0 -15 -1 -23 -1v102z" />
    <glyph glyph-name="asciitilde" unicode="~" horiz-adv-x="833" 
d="M747 392v-108c-65 -44 -124 -67 -185 -67c-30 0 -60 5 -90 15c-69 23 -130 49 -197 49c-59 0 -118 -27 -188 -77v108c70 47 133 70 189 70c58 0 102 -15 144 -29c48 -16 93 -36 144 -36c59 0 116 26 183 75z" />
    <glyph glyph-name="exclamdown" unicode="&#xa1;" horiz-adv-x="315" 
d="M77 711h159v-165h-159v165zM77 477h161v-477h-161v477z" />
    <glyph glyph-name="cent" unicode="&#xa2;" horiz-adv-x="595" 
d="M409 280h169c-33 -109 -109 -178 -220 -200v-108h-124v110c-132 35 -213 144 -213 277c0 129 84 239 219 274v114h118v-112c104 -18 181 -87 220 -203h-167c-24 36 -60 55 -111 55c-71 0 -123 -53 -123 -130c0 -78 53 -130 128 -130c43 0 78 18 104 53z" />
    <glyph glyph-name="sterling" unicode="&#xa3;" horiz-adv-x="595" 
d="M51 0v142c11 -1 22 -2 32 -2c65 0 96 26 96 82c0 16 -4 35 -12 59h-130v126h64c-16 33 -24 65 -24 97c0 119 103 219 245 219c134 0 221 -83 230 -225h-156c-1 49 -29 78 -72 78c-47 0 -79 -34 -79 -85c0 -24 9 -52 25 -84h158v-126h-110c10 -20 15 -40 15 -60
c0 -35 -10 -61 -30 -82c14 -1 27 -1 38 -1c75 0 106 16 106 70c0 10 -1 21 -4 33h140c6 -25 8 -47 8 -66c0 -104 -75 -176 -208 -176c-27 0 -53 1 -76 1h-256z" />
    <glyph glyph-name="fraction" unicode="&#x2044;" horiz-adv-x="167" 
d="M243 725h90l-409 -739h-91z" />
    <glyph glyph-name="yen" unicode="&#xa5;" horiz-adv-x="595" 
d="M586 707l-74 -159h59v-106h-108l-34 -74h142v-106h-191v-262h-166v262h-191v106h143l-33 74h-110v106h61l-72 159h186l104 -272l108 272h176z" />
    <glyph glyph-name="florin" unicode="&#x192;" horiz-adv-x="595" 
d="M208 320h-111v126h123l9 87c16 152 63 192 223 192c19 0 42 0 67 -2v-130h-19c-81 0 -99 -25 -108 -106l-5 -41h122v-126h-133l-32 -344c-13 -137 -62 -186 -221 -186c-17 0 -38 1 -64 5v129h20c77 0 97 24 103 100z" />
    <glyph glyph-name="section" unicode="&#xa7;" 
d="M42 64h139c2 -49 30 -77 75 -77c36 0 60 22 60 50c0 33 -29 43 -80 63l-79 31c-94 36 -145 96 -145 175c0 63 29 106 91 134c-38 32 -58 73 -58 118c0 104 73 167 205 167c124 0 199 -68 204 -177h-143c0 44 -26 71 -64 71c-36 0 -59 -19 -59 -46c0 -28 26 -49 79 -71
l78 -32c95 -39 143 -97 143 -173c0 -66 -33 -115 -90 -132c42 -34 62 -71 62 -120c0 -100 -74 -164 -201 -164c-141 0 -216 64 -217 183zM310 219c32 14 48 35 48 58c0 27 -21 40 -58 57l-113 51c-32 -17 -48 -38 -48 -60c0 -21 14 -37 43 -50z" />
    <glyph glyph-name="currency" unicode="&#xa4;" horiz-adv-x="606" 
d="M84 702l100 -99c33 24 71 38 119 38c45 0 85 -12 121 -38l99 99l51 -52l-99 -100c24 -34 37 -73 37 -118c0 -43 -12 -82 -37 -118l99 -100l-51 -51l-99 99c-33 -24 -72 -38 -120 -38c-46 0 -85 12 -120 38l-100 -99l-51 51l99 100c-25 35 -37 73 -37 118s13 84 37 118
l-99 100zM304 567c-74 0 -135 -62 -135 -135c0 -74 60 -134 135 -134c74 0 135 60 135 134c0 73 -61 135 -135 135z" />
    <glyph glyph-name="quotesingle" unicode="'" horiz-adv-x="172" 
d="M39 702h94v-273h-94v273z" />
    <glyph glyph-name="quotedblleft" unicode="&#x201c;" horiz-adv-x="487" 
d="M49 398v184c0 98 44 144 139 144c8 0 16 0 24 -1v-82h-9c-46 0 -58 -21 -58 -75v-6h67v-164h-163zM282 398v184c0 98 44 144 139 144c8 0 16 0 24 -1v-82h-9c-46 0 -58 -21 -58 -75v-6h67v-164h-163z" />
    <glyph glyph-name="guillemotleft" unicode="&#xab;" horiz-adv-x="560" 
d="M294 127h-120l-98 148l98 144h120l-97 -145zM484 127h-121l-97 148l97 144h121l-97 -145z" />
    <glyph glyph-name="guilsinglleft" unicode="&#x2039;" horiz-adv-x="370" 
d="M294 127h-120l-98 148l98 144h120l-97 -145z" />
    <glyph glyph-name="guilsinglright" unicode="&#x203a;" horiz-adv-x="370" 
d="M76 127l98 147l-98 145h121l97 -144l-97 -148h-121z" />
    <glyph glyph-name="fi" unicode="&#xfb01;" horiz-adv-x="576" 
d="M70 417h-58v120h58c0 7 -1 14 -1 20c0 115 62 167 194 167c8 0 16 -1 25 -1v-108h-4c-48 0 -59 -16 -59 -65v-13h63v-120h-63v-417h-155v417zM516 0h-157v537h157v-537zM516 586h-157v125h157v-125z" />
    <glyph glyph-name="fl" unicode="&#xfb02;" horiz-adv-x="576" 
d="M70 417h-58v120h58c0 7 -1 14 -1 20c0 115 62 167 194 167c8 0 16 -1 25 -1v-108h-4c-48 0 -59 -16 -59 -65v-13h63v-120h-63v-417h-155v417zM359 711h157v-711h-157v711z" />
    <glyph glyph-name="endash" unicode="&#x2013;" 
d="M0 208v120h500v-120h-500z" />
    <glyph glyph-name="dagger" unicode="&#x2020;" 
d="M179 -114v513h-157v110h157v202h141v-202h158v-110h-158v-513h-141z" />
    <glyph glyph-name="daggerdbl" unicode="&#x2021;" 
d="M179 -114v175h-157v111h157v252h-157v110h157v177h141v-177h158v-110h-158v-252h158v-111h-158v-175h-141z" />
    <glyph glyph-name="periodcentered" unicode="&#xb7;" horiz-adv-x="297" 
d="M57 355c0 51 40 91 91 91s92 -40 92 -91s-41 -91 -92 -91s-91 40 -91 91z" />
    <glyph glyph-name="paragraph" unicode="&#xb6;" 
d="M480 722v-54h-55v-668h-74v668h-78v-668h-74v383c-111 4 -179 73 -179 169c0 100 73 170 191 170h269z" />
    <glyph glyph-name="bullet" unicode="&#x2022;" horiz-adv-x="590" 
d="M150 372c0 80 65 144 145 144c79 0 144 -64 144 -144c0 -79 -65 -145 -145 -145s-144 65 -144 145z" />
    <glyph glyph-name="quotesinglbase" unicode="&#x201a;" horiz-adv-x="255" 
d="M216 164v-183c0 -98 -44 -144 -139 -144c-8 0 -16 0 -24 1v82h10c45 0 57 20 57 74v6h-67v164h163z" />
    <glyph glyph-name="quotedblbase" unicode="&#x201e;" horiz-adv-x="487" 
d="M216 164v-183c0 -98 -44 -144 -139 -144c-8 0 -16 0 -24 1v82h10c45 0 57 20 57 74v6h-67v164h163zM449 164v-183c0 -98 -44 -144 -139 -144c-8 0 -16 0 -24 1v82h10c45 0 57 20 57 74v6h-67v164h163z" />
    <glyph glyph-name="quotedblright" unicode="&#x201d;" horiz-adv-x="487" 
d="M216 711v-184c0 -98 -44 -144 -139 -144c-8 0 -16 0 -24 1v82h9c46 0 58 21 58 75v6h-67v164h163zM449 711v-184c0 -97 -42 -144 -139 -144c-8 0 -16 0 -24 1v82h9c46 0 58 21 58 75v6h-67v164h163z" />
    <glyph glyph-name="guillemotright" unicode="&#xbb;" horiz-adv-x="560" 
d="M266 127l97 147l-97 145h121l97 -144l-97 -148h-121zM76 127l98 147l-98 145h121l97 -144l-97 -148h-121z" />
    <glyph glyph-name="ellipsis" unicode="&#x2026;" horiz-adv-x="1000" 
d="M248 0h-162v164h162v-164zM581 0h-162v164h162v-164zM915 0h-162v164h162v-164z" />
    <glyph glyph-name="perthousand" unicode="&#x2030;" horiz-adv-x="1257" 
d="M564 726h90l-380 -741h-90zM985 160c0 -36 29 -65 65 -65s64 29 64 65s-28 64 -64 64s-65 -28 -65 -64zM876 160c0 47 19 91 52 124s76 51 123 51s91 -18 124 -51s52 -77 52 -124c0 -48 -19 -91 -52 -124s-77 -51 -124 -51s-90 18 -123 51s-52 77 -52 124zM573 160
c0 -36 28 -65 64 -65s65 29 65 65s-29 64 -65 64s-64 -28 -64 -64zM464 160c0 47 18 91 51 124s77 51 124 51s91 -18 124 -51s51 -77 51 -124c0 -48 -18 -91 -51 -124s-77 -51 -124 -51s-91 18 -124 51s-51 77 -51 124zM135 550c0 -36 28 -65 64 -65s65 29 65 65
s-29 64 -65 64s-64 -28 -64 -64zM25 550c0 47 18 90 51 123s77 52 124 52s91 -19 124 -52s51 -76 51 -123c0 -48 -18 -92 -51 -125s-77 -50 -124 -50s-91 17 -124 50s-51 78 -51 125z" />
    <glyph glyph-name="questiondown" unicode="&#xbf;" horiz-adv-x="535" 
d="M223 711h161v-163h-161v163zM219 488h169c0 -4 1 -8 1 -12c0 -49 -28 -90 -77 -141c-48 -50 -88 -82 -88 -135c0 -36 22 -57 58 -57c38 0 60 28 60 82v10h171v-14c0 -139 -103 -235 -248 -235c-134 0 -228 89 -228 211c0 67 26 113 82 165c51 48 97 76 100 126z" />
    <glyph glyph-name="grave" unicode="`" 
d="M107 786h126l96 -181h-69z" />
    <glyph glyph-name="acute" unicode="&#xb4;" 
d="M393 786l-153 -181h-69l96 181h126z" />
    <glyph glyph-name="circumflex" unicode="&#x2c6;" 
d="M96 605l96 181h116l96 -181h-69l-85 106l-86 -106h-68z" />
    <glyph glyph-name="tilde" unicode="&#x2dc;" 
d="M405 762c-17 -80 -49 -119 -102 -119c-11 0 -23 2 -36 6l-43 12c-11 3 -22 6 -32 6c-22 0 -35 -12 -43 -39h-54c16 78 47 115 100 115c12 0 26 -1 42 -6l45 -13c9 -3 18 -4 27 -4c21 0 35 14 42 42h54z" />
    <glyph glyph-name="macron" unicode="&#xaf;" 
d="M110 656v76h280v-76h-280z" />
    <glyph glyph-name="breve" unicode="&#x2d8;" 
d="M99 769h60c4 -51 33 -72 91 -72s86 21 90 72h60c-7 -102 -54 -148 -150 -148s-144 47 -151 148z" />
    <glyph glyph-name="dotaccent" unicode="&#x2d9;" 
d="M193 631v126h115v-126h-115z" />
    <glyph glyph-name="dieresis" unicode="&#xa8;" 
d="M110 634v120h110v-120h-110zM280 634v120h110v-120h-110z" />
    <glyph glyph-name="ring" unicode="&#x2da;" 
d="M121 726c0 72 56 129 129 129s130 -57 130 -129c0 -73 -57 -130 -130 -130s-129 57 -129 130zM191 725c0 -34 25 -59 59 -59s60 26 60 59s-27 60 -60 60c-34 0 -59 -26 -59 -60z" />
    <glyph glyph-name="cedilla" unicode="&#xb8;" 
d="M119 -205v60c57 -14 99 -21 126 -21c33 0 49 11 49 35s-18 33 -59 33c-9 0 -18 0 -28 -1v99h49v-42h7c77 0 116 -31 116 -90c0 -63 -43 -93 -130 -93c-31 0 -75 6 -130 20z" />
    <glyph glyph-name="hungarumlaut" unicode="&#x2dd;" 
d="M144 605l56 181h108l-113 -181h-51zM275 605l75 181h112l-132 -181h-55z" />
    <glyph glyph-name="ogonek" unicode="&#x2db;" 
d="M306 0c-42 -34 -62 -68 -62 -100c0 -26 13 -40 40 -40h50v-84h-52c-77 0 -116 31 -116 90c0 49 31 89 93 134h47z" />
    <glyph glyph-name="caron" unicode="&#x2c7;" 
d="M96 786h68l86 -107l85 107h69l-96 -181h-116z" />
    <glyph glyph-name="emdash" unicode="&#x2014;" horiz-adv-x="1000" 
d="M0 208v120h1000v-120h-1000z" />
    <glyph glyph-name="AE" unicode="&#xc6;" horiz-adv-x="895" 
d="M454 136h-229l-68 -136h-205l388 711h500v-155h-213v-118h213v-160h-213v-123h213v-155h-386v136zM454 278v278h-18l-136 -278h154z" />
    <glyph glyph-name="ordfeminine" unicode="&#xaa;" horiz-adv-x="486" 
d="M332 335v42c-36 -32 -72 -44 -120 -44s-90 15 -126 44c-46 38 -70 89 -70 148c0 54 22 102 64 140c38 34 84 51 135 51c48 0 86 -15 113 -47v42h118v-376h-114zM134 525c0 -52 44 -92 105 -92c51 0 93 39 93 91c0 54 -42 94 -98 94s-100 -42 -100 -93z" />
    <glyph glyph-name="Lslash" unicode="&#x141;" horiz-adv-x="451" 
d="M69 241l-75 -53v149l75 53v321h173v-254l96 69v-150l-96 -67v-152h202v-157h-375v241z" />
    <glyph glyph-name="Oslash" unicode="&#xd8;" horiz-adv-x="787" 
d="M98 137c-47 67 -70 139 -70 219c0 104 37 193 109 264c69 68 156 104 255 104c73 0 138 -19 198 -58l94 102l85 -78l-92 -102c55 -68 82 -145 82 -231c0 -97 -37 -190 -103 -259c-70 -73 -164 -112 -271 -112c-75 0 -142 22 -205 67l-109 -115l-85 79zM226 275l240 258
c-23 10 -45 15 -70 15c-107 0 -189 -83 -189 -192c0 -27 7 -54 19 -81zM554 456l-249 -269c32 -16 62 -25 91 -25c99 0 184 83 184 199c0 32 -9 64 -26 95z" />
    <glyph glyph-name="OE" unicode="&#x152;" horiz-adv-x="1017" 
d="M576 0v38c-61 -35 -120 -52 -185 -52c-80 0 -150 22 -210 64c-102 72 -157 181 -157 313c0 99 37 188 108 257s157 103 262 103c65 0 125 -17 183 -52v40h386v-157h-212v-115h212v-158h-212v-123h212v-158h-387zM203 361c0 -112 88 -198 186 -198c102 0 186 82 186 198
c0 104 -83 187 -183 187c-106 0 -189 -83 -189 -187z" />
    <glyph glyph-name="ordmasculine" unicode="&#xba;" horiz-adv-x="457" 
d="M133 523c0 -52 43 -93 95 -93c53 0 95 41 95 93c0 51 -42 93 -95 93c-52 0 -95 -42 -95 -93zM16 524c0 52 22 101 61 138c41 38 94 59 149 59c58 0 109 -19 149 -55c43 -38 66 -90 66 -141c0 -56 -20 -103 -61 -141c-41 -39 -92 -59 -153 -59s-111 20 -152 60
c-39 38 -59 86 -59 139z" />
    <glyph glyph-name="ae" unicode="&#xe6;" horiz-adv-x="1018" 
d="M422 0v56c-39 -42 -84 -59 -147 -59s-117 21 -163 63c-60 55 -91 127 -91 211c0 78 28 146 83 200c51 50 108 73 180 73c55 0 103 -21 138 -60v53h132v-53c45 45 98 66 167 66c160 0 277 -126 277 -323v-17h-405c16 -59 55 -86 124 -86c33 0 59 9 83 31h174
c-51 -111 -142 -170 -262 -170c-64 0 -113 22 -158 71v-56h-132zM174 272c0 -75 56 -132 134 -132c65 0 122 55 122 130c0 78 -57 134 -122 134c-79 0 -134 -59 -134 -132zM589 318h251c-14 56 -61 90 -127 90c-68 0 -118 -38 -124 -90z" />
    <glyph glyph-name="dotlessi" unicode="&#x131;" horiz-adv-x="278" 
d="M217 0h-157v537h157v-537z" />
    <glyph glyph-name="lslash" unicode="&#x142;" horiz-adv-x="306" 
d="M74 243l-74 -52v136l74 51v333h157v-270l75 52v-135l-75 -52v-306h-157v243z" />
    <glyph glyph-name="oslash" unicode="&#xf8;" horiz-adv-x="609" 
d="M72 107c-34 54 -51 106 -51 162c0 74 28 143 82 198s122 83 203 83c51 0 99 -13 148 -41l79 83l68 -66l-76 -81c41 -48 63 -111 63 -180c0 -155 -122 -279 -287 -279c-62 0 -116 17 -164 53l-87 -89l-66 65zM415 336l-174 -183c22 -10 42 -15 63 -15c75 0 127 54 127 133
c0 23 -5 44 -16 65zM184 220l161 171c-15 5 -30 7 -45 7c-71 0 -125 -55 -125 -124c0 -14 3 -32 9 -54z" />
    <glyph glyph-name="oe" unicode="&#x153;" horiz-adv-x="1013" 
d="M507 465c52 56 121 86 199 86c171 0 288 -124 288 -323v-17h-406c13 -56 56 -86 125 -86c32 0 58 9 82 31h174c-50 -112 -141 -171 -261 -171c-81 0 -147 28 -201 84c-60 -57 -125 -84 -204 -84c-81 0 -148 29 -203 87c-52 54 -79 123 -79 198s29 144 82 197
c54 54 125 84 198 84c84 0 150 -27 206 -86zM177 270c0 -81 50 -131 128 -131c76 0 126 51 126 134c0 73 -53 125 -131 125c-71 0 -123 -54 -123 -128zM584 323h251c-19 55 -64 85 -127 85c-66 0 -114 -34 -124 -85z" />
    <glyph glyph-name="germandbls" unicode="&#xdf;" horiz-adv-x="660" 
d="M209 59v-59h-163v456c0 175 91 267 263 267c139 0 226 -79 226 -187c0 -55 -24 -99 -69 -131c102 -13 162 -85 162 -189c0 -130 -101 -228 -250 -228c-73 0 -129 23 -169 71zM209 199h121c4 -32 25 -51 58 -51c41 0 68 26 68 67c0 72 -48 81 -142 84l-52 2v135
c65 0 98 25 98 71c0 35 -28 64 -69 64c-71 0 -82 -44 -82 -131v-241z" />
    <glyph glyph-name="Aacute" unicode="&#xc1;" horiz-adv-x="602" 
d="M183 103l-36 -103h-190l273 711h142l273 -711h-192l-35 103h-235zM371 250l-70 228l-71 -228h141zM444 957l-153 -181h-69l96 181h126z" />
    <glyph glyph-name="Acircumflex" unicode="&#xc2;" horiz-adv-x="602" 
d="M183 103l-36 -103h-190l273 711h142l273 -711h-192l-35 103h-235zM371 250l-70 228l-71 -228h141zM147 776l96 181h116l96 -181h-69l-85 106l-86 -106h-68z" />
    <glyph glyph-name="Adieresis" unicode="&#xc4;" horiz-adv-x="602" 
d="M183 103l-36 -103h-190l273 711h142l273 -711h-192l-35 103h-235zM371 250l-70 228l-71 -228h141zM161 805v120h110v-120h-110zM331 805v120h110v-120h-110z" />
    <glyph glyph-name="Agrave" unicode="&#xc0;" horiz-adv-x="602" 
d="M183 103l-36 -103h-190l273 711h142l273 -711h-192l-35 103h-235zM371 250l-70 228l-71 -228h141zM158 957h126l96 -181h-69z" />
    <glyph glyph-name="Aring" unicode="&#xc5;" horiz-adv-x="602" 
d="M183 103l-36 -103h-190l273 705h142l273 -705h-192l-35 103h-235zM371 250l-70 228l-71 -228h141zM253 847c0 -26 23 -48 49 -48s48 22 48 48c0 25 -23 48 -48 48c-26 0 -49 -22 -49 -48zM186 847c0 64 52 116 115 116c64 0 116 -52 116 -116s-52 -115 -116 -115
s-115 52 -115 115z" />
    <glyph glyph-name="Atilde" unicode="&#xc3;" horiz-adv-x="602" 
d="M183 103l-36 -103h-190l273 711h142l273 -711h-192l-35 103h-235zM371 250l-70 228l-71 -228h141zM456 933c-17 -80 -49 -119 -102 -119c-11 0 -23 2 -36 6l-43 12c-11 3 -22 6 -32 6c-22 0 -35 -12 -43 -39h-54c16 78 47 115 100 115c12 0 26 -1 42 -6l45 -13
c9 -3 18 -4 27 -4c21 0 35 14 42 42h54z" />
    <glyph glyph-name="Ccedilla" unicode="&#xc7;" horiz-adv-x="771" 
d="M742 264c-47 -173 -182 -278 -353 -278c-105 0 -194 39 -264 113c-67 71 -101 159 -101 264c0 98 37 188 108 257c70 69 158 105 259 105c166 0 308 -109 354 -284h-188c-38 70 -95 107 -165 107c-106 0 -189 -82 -189 -186c0 -113 88 -200 186 -200c67 0 126 36 164 102
h189zM255 -205v60c57 -14 99 -21 126 -21c33 0 49 11 49 35s-18 33 -59 33c-9 0 -18 0 -28 -1v99h49v-42h7c77 0 116 -31 116 -90c0 -63 -43 -93 -130 -93c-31 0 -75 6 -130 20z" />
    <glyph glyph-name="Eacute" unicode="&#xc9;" horiz-adv-x="495" 
d="M441 0h-386v711h386v-157h-212v-115h212v-158h-212v-124h212v-157zM391 957l-153 -181h-69l96 181h126z" />
    <glyph glyph-name="Ecircumflex" unicode="&#xca;" horiz-adv-x="495" 
d="M441 0h-386v711h386v-157h-212v-115h212v-158h-212v-124h212v-157zM94 776l96 181h116l96 -181h-69l-85 106l-86 -106h-68z" />
    <glyph glyph-name="Edieresis" unicode="&#xcb;" horiz-adv-x="495" 
d="M441 0h-386v711h386v-157h-212v-115h212v-158h-212v-124h212v-157zM108 805v120h110v-120h-110zM278 805v120h110v-120h-110z" />
    <glyph glyph-name="Egrave" unicode="&#xc8;" horiz-adv-x="495" 
d="M441 0h-386v711h386v-157h-212v-115h212v-158h-212v-124h212v-157zM105 957h126l96 -181h-69z" />
    <glyph glyph-name="Iacute" unicode="&#xcd;" horiz-adv-x="287" 
d="M230 0h-174v711h174v-711zM287 957l-153 -181h-69l96 181h126z" />
    <glyph glyph-name="Icircumflex" unicode="&#xce;" horiz-adv-x="287" 
d="M230 0h-174v711h174v-711zM-10 776l96 181h116l96 -181h-69l-85 106l-86 -106h-68z" />
    <glyph glyph-name="Idieresis" unicode="&#xcf;" horiz-adv-x="287" 
d="M230 0h-174v711h174v-711zM4 805v120h110v-120h-110zM174 805v120h110v-120h-110z" />
    <glyph glyph-name="Igrave" unicode="&#xcc;" horiz-adv-x="287" 
d="M230 0h-174v711h174v-711zM1 957h126l96 -181h-69z" />
    <glyph glyph-name="Ntilde" unicode="&#xd1;" horiz-adv-x="706" 
d="M231 0h-174v711h157l261 -395v395h174v-711h-153l-265 396v-396zM508 933c-17 -80 -49 -119 -102 -119c-11 0 -23 2 -36 6l-43 12c-11 3 -22 6 -32 6c-22 0 -35 -12 -43 -39h-54c16 78 47 115 100 115c12 0 26 -1 42 -6l45 -13c9 -3 18 -4 27 -4c21 0 35 14 42 42h54z
" />
    <glyph glyph-name="Oacute" unicode="&#xd3;" horiz-adv-x="787" 
d="M28 363c0 98 38 188 108 257s158 104 259 104c95 0 185 -37 254 -105c72 -71 110 -162 110 -259c0 -102 -36 -193 -103 -262c-69 -72 -163 -111 -262 -111c-105 0 -195 38 -265 112c-67 71 -101 159 -101 264zM207 361c0 -112 89 -198 187 -198c102 0 185 82 185 198
c0 104 -83 187 -183 187c-106 0 -189 -83 -189 -187zM537 957l-153 -181h-69l96 181h126z" />
    <glyph glyph-name="Ocircumflex" unicode="&#xd4;" horiz-adv-x="787" 
d="M28 363c0 98 38 188 108 257s158 104 259 104c95 0 185 -37 254 -105c72 -71 110 -162 110 -259c0 -102 -36 -193 -103 -262c-69 -72 -163 -111 -262 -111c-105 0 -195 38 -265 112c-67 71 -101 159 -101 264zM207 361c0 -112 89 -198 187 -198c102 0 185 82 185 198
c0 104 -83 187 -183 187c-106 0 -189 -83 -189 -187zM240 776l96 181h116l96 -181h-69l-85 106l-86 -106h-68z" />
    <glyph glyph-name="Odieresis" unicode="&#xd6;" horiz-adv-x="787" 
d="M28 363c0 98 38 188 108 257s158 104 259 104c95 0 185 -37 254 -105c72 -71 110 -162 110 -259c0 -102 -36 -193 -103 -262c-69 -72 -163 -111 -262 -111c-105 0 -195 38 -265 112c-67 71 -101 159 -101 264zM207 361c0 -112 89 -198 187 -198c102 0 185 82 185 198
c0 104 -83 187 -183 187c-106 0 -189 -83 -189 -187zM254 805v120h110v-120h-110zM424 805v120h110v-120h-110z" />
    <glyph glyph-name="Ograve" unicode="&#xd2;" horiz-adv-x="787" 
d="M28 363c0 98 38 188 108 257s158 104 259 104c95 0 185 -37 254 -105c72 -71 110 -162 110 -259c0 -102 -36 -193 -103 -262c-69 -72 -163 -111 -262 -111c-105 0 -195 38 -265 112c-67 71 -101 159 -101 264zM207 361c0 -112 89 -198 187 -198c102 0 185 82 185 198
c0 104 -83 187 -183 187c-106 0 -189 -83 -189 -187zM251 957h126l96 -181h-69z" />
    <glyph glyph-name="Otilde" unicode="&#xd5;" horiz-adv-x="787" 
d="M28 363c0 98 38 188 108 257s158 104 259 104c95 0 185 -37 254 -105c72 -71 110 -162 110 -259c0 -102 -36 -193 -103 -262c-69 -72 -163 -111 -262 -111c-105 0 -195 38 -265 112c-67 71 -101 159 -101 264zM207 361c0 -112 89 -198 187 -198c102 0 185 82 185 198
c0 104 -83 187 -183 187c-106 0 -189 -83 -189 -187zM549 933c-17 -80 -49 -119 -102 -119c-11 0 -23 2 -36 6l-43 12c-11 3 -22 6 -32 6c-22 0 -35 -12 -43 -39h-54c16 78 47 115 100 115c12 0 26 -1 42 -6l45 -13c9 -3 18 -4 27 -4c21 0 35 14 42 42h54z" />
    <glyph glyph-name="Scaron" unicode="&#x160;" horiz-adv-x="535" 
d="M25 234h166v-8c0 -58 22 -86 65 -86c42 0 67 22 67 59c0 65 -49 70 -127 105c-106 48 -160 117 -160 203c0 127 98 218 242 218c128 0 216 -82 216 -209v-11h-160c0 44 -24 69 -65 69c-32 0 -55 -22 -55 -53c0 -53 52 -64 143 -111c97 -50 144 -113 144 -198
c0 -124 -102 -226 -234 -226c-158 0 -242 80 -242 232v16zM114 957h68l86 -107l85 107h69l-96 -181h-116z" />
    <glyph glyph-name="Uacute" unicode="&#xda;" horiz-adv-x="635" 
d="M55 711h175v-438c0 -80 25 -121 84 -121c61 0 90 40 90 121v438h174v-445c0 -174 -106 -277 -265 -277c-161 0 -258 99 -258 277v445zM461 957l-153 -181h-69l96 181h126z" />
    <glyph glyph-name="Ucircumflex" unicode="&#xdb;" horiz-adv-x="635" 
d="M55 711h175v-438c0 -80 25 -121 84 -121c61 0 90 40 90 121v438h174v-445c0 -174 -106 -277 -265 -277c-161 0 -258 99 -258 277v445zM164 776l96 181h116l96 -181h-69l-85 106l-86 -106h-68z" />
    <glyph glyph-name="Udieresis" unicode="&#xdc;" horiz-adv-x="635" 
d="M55 711h175v-438c0 -80 25 -121 84 -121c61 0 90 40 90 121v438h174v-445c0 -174 -106 -277 -265 -277c-161 0 -258 99 -258 277v445zM178 805v120h110v-120h-110zM348 805v120h110v-120h-110z" />
    <glyph glyph-name="Ugrave" unicode="&#xd9;" horiz-adv-x="635" 
d="M55 711h175v-438c0 -80 25 -121 84 -121c61 0 90 40 90 121v438h174v-445c0 -174 -106 -277 -265 -277c-161 0 -258 99 -258 277v445zM175 957h126l96 -181h-69z" />
    <glyph glyph-name="Ydieresis" unicode="&#x178;" horiz-adv-x="514" 
d="M342 0h-175v263l-202 448h191l103 -261l108 261h182l-207 -448v-263zM117 805v120h110v-120h-110zM287 805v120h110v-120h-110z" />
    <glyph glyph-name="Zcaron" unicode="&#x17d;" horiz-adv-x="493" 
d="M467 0h-451v128l261 428h-254v155h446v-155l-243 -401h241v-155zM93 957h68l86 -107l85 107h69l-96 -181h-116z" />
    <glyph glyph-name="aacute" unicode="&#xe1;" horiz-adv-x="648" 
d="M442 0v60c-47 -46 -95 -63 -159 -63c-65 0 -121 21 -168 63c-62 55 -94 127 -94 211c0 77 30 146 86 200c50 49 111 74 179 74c65 0 115 -22 151 -68v60h158v-537h-153zM179 272c0 -75 58 -132 139 -132c68 0 125 56 125 130c0 77 -57 135 -131 135
c-75 0 -133 -61 -133 -133zM484 786l-153 -181h-69l96 181h126z" />
    <glyph glyph-name="acircumflex" unicode="&#xe2;" horiz-adv-x="648" 
d="M442 0v60c-47 -46 -95 -63 -159 -63c-65 0 -121 21 -168 63c-62 55 -94 127 -94 211c0 77 30 146 86 200c50 49 111 74 179 74c65 0 115 -22 151 -68v60h158v-537h-153zM179 272c0 -75 58 -132 139 -132c68 0 125 56 125 130c0 77 -57 135 -131 135
c-75 0 -133 -61 -133 -133zM187 605l96 181h116l96 -181h-69l-85 106l-86 -106h-68z" />
    <glyph glyph-name="adieresis" unicode="&#xe4;" horiz-adv-x="648" 
d="M442 0v60c-47 -46 -95 -63 -159 -63c-65 0 -121 21 -168 63c-62 55 -94 127 -94 211c0 77 30 146 86 200c50 49 111 74 179 74c65 0 115 -22 151 -68v60h158v-537h-153zM179 272c0 -75 58 -132 139 -132c68 0 125 56 125 130c0 77 -57 135 -131 135
c-75 0 -133 -61 -133 -133zM201 634v120h110v-120h-110zM371 634v120h110v-120h-110z" />
    <glyph glyph-name="agrave" unicode="&#xe0;" horiz-adv-x="648" 
d="M442 0v60c-47 -46 -95 -63 -159 -63c-65 0 -121 21 -168 63c-62 55 -94 127 -94 211c0 77 30 146 86 200c50 49 111 74 179 74c65 0 115 -22 151 -68v60h158v-537h-153zM179 272c0 -75 58 -132 139 -132c68 0 125 56 125 130c0 77 -57 135 -131 135
c-75 0 -133 -61 -133 -133zM198 786h126l96 -181h-69z" />
    <glyph glyph-name="aring" unicode="&#xe5;" horiz-adv-x="648" 
d="M179 272c0 -75 58 -132 139 -132c68 0 125 56 125 130c0 77 -57 135 -131 135c-75 0 -133 -61 -133 -133zM442 0v60c-47 -46 -95 -63 -159 -63c-65 0 -121 21 -168 63c-62 55 -94 127 -94 211c0 77 30 146 86 200c50 49 111 74 179 74c65 0 115 -22 151 -68v60h158v-537
h-153zM253 692c0 -26 22 -48 48 -48s49 22 49 48c0 25 -24 49 -49 49c-26 0 -48 -23 -48 -49zM186 692c0 64 52 116 115 116c64 0 116 -52 116 -116s-52 -115 -116 -115s-115 52 -115 115z" />
    <glyph glyph-name="atilde" unicode="&#xe3;" horiz-adv-x="648" 
d="M442 0v60c-47 -46 -95 -63 -159 -63c-65 0 -121 21 -168 63c-62 55 -94 127 -94 211c0 77 30 146 86 200c50 49 111 74 179 74c65 0 115 -22 151 -68v60h158v-537h-153zM179 272c0 -75 58 -132 139 -132c68 0 125 56 125 130c0 77 -57 135 -131 135
c-75 0 -133 -61 -133 -133zM496 762c-17 -80 -49 -119 -102 -119c-11 0 -23 2 -36 6l-43 12c-11 3 -22 6 -32 6c-22 0 -35 -12 -43 -39h-54c16 78 47 115 100 115c12 0 26 -1 42 -6l45 -13c9 -3 18 -4 27 -4c21 0 35 14 42 42h54z" />
    <glyph glyph-name="ccedilla" unicode="&#xe7;" horiz-adv-x="604" 
d="M409 192h169c-40 -129 -144 -206 -275 -206c-82 0 -148 28 -203 86c-52 55 -79 125 -79 200s29 143 82 197c55 56 121 84 198 84c135 0 234 -74 277 -210h-167c-22 37 -59 57 -111 57c-71 0 -123 -54 -123 -128c0 -82 52 -133 128 -133c43 0 78 18 104 53zM171 -205v60
c57 -14 99 -21 126 -21c33 0 49 11 49 35s-18 33 -59 33c-9 0 -18 0 -28 -1v99h49v-42h7c77 0 116 -31 116 -90c0 -63 -43 -93 -130 -93c-31 0 -75 6 -130 20z" />
    <glyph glyph-name="eacute" unicode="&#xe9;" horiz-adv-x="609" 
d="M179 325h251c-19 55 -64 85 -127 85c-66 0 -113 -34 -124 -85zM390 156h174c-52 -112 -141 -169 -261 -169c-82 0 -148 28 -203 86c-52 55 -79 123 -79 199c0 75 29 144 82 197c54 54 125 84 198 84c171 0 288 -123 288 -323v-17h-405c14 -57 55 -87 124 -87
c32 0 58 9 82 30zM448 786l-153 -181h-69l96 181h126z" />
    <glyph glyph-name="ecircumflex" unicode="&#xea;" horiz-adv-x="609" 
d="M179 325h251c-19 55 -64 85 -127 85c-66 0 -113 -34 -124 -85zM390 156h174c-52 -112 -141 -169 -261 -169c-82 0 -148 28 -203 86c-52 55 -79 123 -79 199c0 75 29 144 82 197c54 54 125 84 198 84c171 0 288 -123 288 -323v-17h-405c14 -57 55 -87 124 -87
c32 0 58 9 82 30zM151 605l96 181h116l96 -181h-69l-85 106l-86 -106h-68z" />
    <glyph glyph-name="edieresis" unicode="&#xeb;" horiz-adv-x="609" 
d="M179 325h251c-19 55 -64 85 -127 85c-66 0 -113 -34 -124 -85zM390 156h174c-52 -112 -141 -169 -261 -169c-82 0 -148 28 -203 86c-52 55 -79 123 -79 199c0 75 29 144 82 197c54 54 125 84 198 84c171 0 288 -123 288 -323v-17h-405c14 -57 55 -87 124 -87
c32 0 58 9 82 30zM165 634v120h110v-120h-110zM335 634v120h110v-120h-110z" />
    <glyph glyph-name="egrave" unicode="&#xe8;" horiz-adv-x="609" 
d="M179 325h251c-19 55 -64 85 -127 85c-66 0 -113 -34 -124 -85zM390 156h174c-52 -112 -141 -169 -261 -169c-82 0 -148 28 -203 86c-52 55 -79 123 -79 199c0 75 29 144 82 197c54 54 125 84 198 84c171 0 288 -123 288 -323v-17h-405c14 -57 55 -87 124 -87
c32 0 58 9 82 30zM162 786h126l96 -181h-69z" />
    <glyph glyph-name="iacute" unicode="&#xed;" horiz-adv-x="278" 
d="M217 0h-157v537h157v-537zM282 786l-153 -181h-69l96 181h126z" />
    <glyph glyph-name="icircumflex" unicode="&#xee;" horiz-adv-x="278" 
d="M217 0h-157v537h157v-537zM-15 605l96 181h116l96 -181h-69l-85 106l-86 -106h-68z" />
    <glyph glyph-name="idieresis" unicode="&#xef;" horiz-adv-x="278" 
d="M217 0h-157v537h157v-537zM-1 634v120h110v-120h-110zM169 634v120h110v-120h-110z" />
    <glyph glyph-name="igrave" unicode="&#xec;" horiz-adv-x="278" 
d="M217 0h-157v537h157v-537zM-4 786h126l96 -181h-69z" />
    <glyph glyph-name="ntilde" unicode="&#xf1;" horiz-adv-x="588" 
d="M207 0h-155v537h150l-2 -72c33 54 83 82 154 82c111 0 183 -70 183 -193v-354h-158v291c0 75 -16 109 -77 109c-62 0 -95 -37 -95 -109v-291zM449 762c-17 -80 -49 -119 -102 -119c-11 0 -23 2 -36 6l-43 12c-11 3 -22 6 -32 6c-22 0 -35 -12 -43 -39h-54
c16 78 47 115 100 115c12 0 26 -1 42 -6l45 -13c9 -3 18 -4 27 -4c21 0 35 14 42 42h54z" />
    <glyph glyph-name="oacute" unicode="&#xf3;" horiz-adv-x="609" 
d="M177 268c0 -73 58 -132 127 -132c70 0 127 59 127 132c0 74 -57 133 -127 133s-127 -59 -127 -133zM21 270c0 75 29 144 82 197c54 54 125 84 198 84c78 0 145 -27 199 -78c57 -54 88 -128 88 -201c0 -81 -27 -148 -81 -202c-55 -55 -123 -84 -204 -84
c-82 0 -148 28 -203 86c-52 54 -79 123 -79 198zM448 786l-153 -181h-69l96 181h126z" />
    <glyph glyph-name="ocircumflex" unicode="&#xf4;" horiz-adv-x="609" 
d="M177 268c0 -73 58 -132 127 -132c70 0 127 59 127 132c0 74 -57 133 -127 133s-127 -59 -127 -133zM21 270c0 75 29 144 82 197c54 54 125 84 198 84c78 0 145 -27 199 -78c57 -54 88 -128 88 -201c0 -81 -27 -148 -81 -202c-55 -55 -123 -84 -204 -84
c-82 0 -148 28 -203 86c-52 54 -79 123 -79 198zM151 605l96 181h116l96 -181h-69l-85 106l-86 -106h-68z" />
    <glyph glyph-name="odieresis" unicode="&#xf6;" horiz-adv-x="609" 
d="M177 268c0 -73 58 -132 127 -132c70 0 127 59 127 132c0 74 -57 133 -127 133s-127 -59 -127 -133zM21 270c0 75 29 144 82 197c54 54 125 84 198 84c78 0 145 -27 199 -78c57 -54 88 -128 88 -201c0 -81 -27 -148 -81 -202c-55 -55 -123 -84 -204 -84
c-82 0 -148 28 -203 86c-52 54 -79 123 -79 198zM165 634v120h110v-120h-110zM335 634v120h110v-120h-110z" />
    <glyph glyph-name="ograve" unicode="&#xf2;" horiz-adv-x="609" 
d="M177 268c0 -73 58 -132 127 -132c70 0 127 59 127 132c0 74 -57 133 -127 133s-127 -59 -127 -133zM21 270c0 75 29 144 82 197c54 54 125 84 198 84c78 0 145 -27 199 -78c57 -54 88 -128 88 -201c0 -81 -27 -148 -81 -202c-55 -55 -123 -84 -204 -84
c-82 0 -148 28 -203 86c-52 54 -79 123 -79 198zM162 786h126l96 -181h-69z" />
    <glyph glyph-name="otilde" unicode="&#xf5;" horiz-adv-x="609" 
d="M177 268c0 -73 58 -132 127 -132c70 0 127 59 127 132c0 74 -57 133 -127 133s-127 -59 -127 -133zM21 270c0 75 29 144 82 197c54 54 125 84 198 84c78 0 145 -27 199 -78c57 -54 88 -128 88 -201c0 -81 -27 -148 -81 -202c-55 -55 -123 -84 -204 -84
c-82 0 -148 28 -203 86c-52 54 -79 123 -79 198zM460 762c-17 -80 -49 -119 -102 -119c-11 0 -23 2 -36 6l-43 12c-11 3 -22 6 -32 6c-22 0 -35 -12 -43 -39h-54c16 78 47 115 100 115c12 0 26 -1 42 -6l45 -13c9 -3 18 -4 27 -4c21 0 35 14 42 42h54z" />
    <glyph glyph-name="scaron" unicode="&#x161;" horiz-adv-x="472" 
d="M21 160h149v-5c0 -30 24 -51 58 -51s54 17 54 47c0 44 -43 42 -110 63c-93 29 -138 79 -138 160c0 105 77 179 205 179c111 0 182 -63 188 -165h-143c-6 35 -19 50 -47 50c-31 0 -49 -18 -49 -44c0 -37 33 -46 88 -61c110 -30 165 -72 165 -161
c0 -108 -85 -186 -215 -186c-120 0 -194 65 -205 174zM82 786h68l86 -107l85 107h69l-96 -181h-116z" />
    <glyph glyph-name="uacute" unicode="&#xfa;" horiz-adv-x="588" 
d="M380 537h155v-537h-147v72c-34 -56 -85 -82 -154 -82c-111 0 -184 70 -184 193v354h159v-291c0 -75 16 -109 77 -109c62 0 94 37 94 109v291zM437 786l-153 -181h-69l96 181h126z" />
    <glyph glyph-name="ucircumflex" unicode="&#xfb;" horiz-adv-x="588" 
d="M380 537h155v-537h-147v72c-34 -56 -85 -82 -154 -82c-111 0 -184 70 -184 193v354h159v-291c0 -75 16 -109 77 -109c62 0 94 37 94 109v291zM140 605l96 181h116l96 -181h-69l-85 106l-86 -106h-68z" />
    <glyph glyph-name="udieresis" unicode="&#xfc;" horiz-adv-x="588" 
d="M380 537h155v-537h-147v72c-34 -56 -85 -82 -154 -82c-111 0 -184 70 -184 193v354h159v-291c0 -75 16 -109 77 -109c62 0 94 37 94 109v291zM154 634v120h110v-120h-110zM324 634v120h110v-120h-110z" />
    <glyph glyph-name="ugrave" unicode="&#xf9;" horiz-adv-x="588" 
d="M380 537h155v-537h-147v72c-34 -56 -85 -82 -154 -82c-111 0 -184 70 -184 193v354h159v-291c0 -75 16 -109 77 -109c62 0 94 37 94 109v291zM151 786h126l96 -181h-69z" />
    <glyph glyph-name="ydieresis" unicode="&#xff;" horiz-adv-x="532" 
d="M262 -174h-159l81 207l-197 504h175l101 -313l114 313h170zM126 634v120h110v-120h-110zM296 634v120h110v-120h-110z" />
    <glyph glyph-name="zcaron" unicode="&#x17e;" horiz-adv-x="442" 
d="M417 0h-403v112l221 286h-221v139h399v-127l-195 -271h199v-139zM67 786h68l86 -107l85 107h69l-96 -181h-116z" />
    <glyph glyph-name="trademark" unicode="&#x2122;" horiz-adv-x="833" 
d="M101 714h237v-55h-82v-212h-73v212h-82v55zM392 714h96l62 -162l60 162h96v-267h-66v200l-75 -200h-30l-77 200v-200h-66v267z" />
    <glyph glyph-name="copyright" unicode="&#xa9;" horiz-adv-x="833" 
d="M416 722c99 0 189 -37 259 -107c68 -68 105 -159 105 -257c0 -100 -37 -187 -105 -254c-72 -70 -164 -109 -259 -109c-96 0 -185 38 -255 108c-69 69 -107 159 -107 255s37 187 107 258c68 69 156 106 255 106zM417 662c-83 0 -157 -30 -214 -88
c-58 -59 -89 -135 -89 -215c0 -81 31 -156 89 -214s134 -89 214 -89s156 31 216 90c57 56 87 130 87 213c0 82 -31 157 -88 214c-58 58 -132 89 -215 89zM592 438h-92c-5 46 -36 72 -84 72c-57 0 -95 -53 -95 -151c0 -96 35 -147 99 -147c47 0 77 28 83 79h94
c-5 -90 -76 -150 -180 -150c-120 0 -196 81 -196 215c0 136 79 220 197 220c100 0 169 -56 174 -138z" />
    <glyph glyph-name="logicalnot" unicode="&#xac;" horiz-adv-x="833" 
d="M124 422h585v-245h-97v149h-488v96z" />
    <glyph glyph-name="registered" unicode="&#xae;" horiz-adv-x="833" 
d="M416 722c100 0 191 -38 261 -109c67 -68 103 -158 103 -255c0 -100 -38 -190 -107 -257c-71 -69 -163 -106 -257 -106c-97 0 -188 39 -258 110c-68 69 -104 159 -104 253c0 65 17 128 53 189c65 110 178 175 309 175zM417 662c-82 0 -154 -29 -211 -86
c-59 -59 -92 -137 -92 -217s30 -155 87 -212c58 -59 135 -92 215 -92c79 0 155 32 215 89c57 55 89 131 89 209c0 87 -29 160 -86 218c-59 60 -133 91 -217 91zM266 567h158c115 0 172 -39 172 -116c0 -53 -33 -93 -88 -107l90 -180h-109l-77 165h-48v-165h-98v403zM364 505
v-117h48c56 0 83 17 83 57c0 42 -29 60 -88 60h-43z" />
    <glyph glyph-name="minus" unicode="&#x2212;" horiz-adv-x="833" 
d="M124 348h585v-99h-585v99z" />
    <glyph glyph-name="Eth" unicode="&#xd0;" horiz-adv-x="711" 
d="M337 0h-267v284h-73v146h73v281h243c113 0 192 -15 266 -85c68 -64 104 -157 104 -274c0 -108 -35 -197 -103 -264c-76 -74 -143 -88 -243 -88zM314 156c133 0 196 62 196 202c0 128 -70 200 -198 200h-68v-128h126v-146h-126v-128h70z" />
    <glyph glyph-name="Thorn" unicode="&#xde;" horiz-adv-x="602" 
d="M231 126v-126h-174v711h174v-103h62c75 0 132 -5 180 -39c64 -44 96 -111 96 -200c0 -92 -42 -168 -113 -211c-45 -27 -102 -32 -175 -32h-50zM233 280h32c86 0 128 22 128 86c0 59 -37 83 -114 83h-46v-169z" />
    <glyph glyph-name="Yacute" unicode="&#xdd;" horiz-adv-x="514" 
d="M342 0h-175v263l-202 448h191l103 -261l108 261h182l-207 -448v-263zM400 957l-153 -181h-69l96 181h126z" />
    <glyph glyph-name="brokenbar" unicode="&#xa6;" 
d="M200 699h101v-370h-101v370zM200 199h101v-370h-101v370z" />
    <glyph glyph-name="degree" unicode="&#xb0;" horiz-adv-x="329" 
d="M165 715c82 0 148 -67 148 -149c0 -81 -66 -148 -149 -148c-82 0 -147 65 -147 148s66 149 148 149zM165 652c-47 0 -86 -38 -86 -85c0 -48 38 -86 86 -86s85 40 85 86c0 47 -38 85 -85 85z" />
    <glyph glyph-name="divide" unicode="&#xf7;" horiz-adv-x="833" 
d="M417 564c40 0 74 -33 74 -74c0 -40 -32 -74 -74 -74c-41 0 -74 33 -74 74c0 42 34 74 74 74zM124 347h585v-97h-585v97zM417 180c40 0 74 -33 74 -74c0 -39 -33 -73 -74 -73s-74 32 -74 73c0 42 34 74 74 74z" />
    <glyph glyph-name="eth" unicode="&#xf0;" horiz-adv-x="606" 
d="M402 437c-22 41 -44 72 -68 97l-144 -51l-30 83l101 35c-18 10 -36 21 -55 30l42 86c50 -22 94 -46 131 -73l153 55l34 -89l-109 -40c67 -83 103 -190 103 -311c0 -68 -11 -120 -40 -163c-49 -71 -126 -111 -216 -111c-73 0 -134 25 -183 74c-47 47 -71 105 -71 169
c0 65 24 122 73 168c49 47 112 71 179 71c36 0 68 -10 100 -30zM190 234c0 -61 52 -113 115 -113s114 52 114 113c0 62 -51 113 -114 113s-115 -50 -115 -113z" />
    <glyph glyph-name="mu" unicode="&#x3bc;" horiz-adv-x="610" 
d="M100 533h141l-37 -212c-12 -66 -15 -111 -15 -131c0 -61 27 -90 83 -90c70 0 99 57 121 182l44 251h141l-94 -533h-131l9 57c-27 -50 -59 -73 -105 -73c-44 0 -77 19 -104 59l-44 -257h-140z" />
    <glyph glyph-name="multiply" unicode="&#xd7;" horiz-adv-x="833" 
d="M203 587l220 -220l220 220l69 -68l-220 -221l220 -220l-69 -68l-220 220l-220 -220l-68 68l220 220l-220 221z" />
    <glyph glyph-name="onehalf" unicode="&#xbd;" horiz-adv-x="917" 
d="M257 313h-104v324h-79v74h183v-398zM618 725h90l-409 -739h-91zM887 0h-310v85c132 69 197 135 197 191c0 28 -16 44 -43 44c-28 0 -46 -20 -46 -57c0 -3 1 -6 1 -9h-111c0 92 61 150 157 150c97 0 156 -48 156 -117c0 -65 -52 -137 -158 -198h157v-89z" />
    <glyph glyph-name="onequarter" unicode="&#xbc;" horiz-adv-x="917" 
d="M257 313h-104v324h-79v74h183v-398zM618 725h90l-409 -739h-91zM761 147l3 133l-97 -133h94zM860 0h-107v72h-191v75l191 251h107v-247h43v-79h-43v-72z" />
    <glyph glyph-name="onesuperior" unicode="&#xb9;" horiz-adv-x="393" 
d="M270 284h-110v347h-82v80h192v-427z" />
    <glyph glyph-name="plusminus" unicode="&#xb1;" horiz-adv-x="833" 
d="M367 597h99v-159h243v-97h-243v-159h-99v159h-243v97h243v159zM124 96h585v-97h-585v97z" />
    <glyph glyph-name="thorn" unicode="&#xfe;" horiz-adv-x="648" 
d="M211 62v-236h-158v885h158v-237c40 45 93 68 154 68c65 0 121 -21 168 -63c62 -55 94 -127 94 -211c0 -77 -30 -147 -86 -201c-50 -49 -111 -73 -179 -73c-65 0 -115 22 -151 68zM205 269c0 -77 56 -135 130 -135c75 0 133 59 133 135c0 73 -59 130 -134 130
c-73 0 -129 -55 -129 -130z" />
    <glyph glyph-name="threequarters" unicode="&#xbe;" horiz-adv-x="917" 
d="M30 433h110v-5c0 -24 17 -38 49 -38c30 0 48 17 48 42c0 29 -25 44 -76 44c-7 0 -15 0 -22 -1v75h11c47 0 70 16 70 49c0 24 -14 38 -36 38c-21 0 -34 -12 -34 -33v-6h-107v1c0 74 55 120 142 120c82 0 136 -46 136 -110c0 -37 -21 -68 -64 -81c57 -15 88 -47 88 -92
c0 -74 -62 -131 -157 -131c-101 0 -158 46 -158 128zM618 725h90l-409 -739h-91zM761 147l3 133l-97 -133h94zM860 0h-107v72h-191v75l191 251h107v-247h43v-79h-43v-72z" />
    <glyph glyph-name="threesuperior" unicode="&#xb3;" horiz-adv-x="393" 
d="M31 412h116v-5c0 -25 17 -40 51 -40c31 0 50 18 50 44c0 32 -26 48 -80 48c-7 0 -15 0 -23 -1v80h12c49 0 73 17 73 52c0 26 -14 41 -37 41s-36 -12 -36 -35v-7h-112v2c0 78 57 128 149 128c86 0 142 -49 142 -118c0 -40 -22 -72 -67 -87c60 -15 92 -50 92 -99
c0 -78 -65 -139 -164 -139c-106 0 -165 49 -166 136z" />
    <glyph glyph-name="twosuperior" unicode="&#xb2;" horiz-adv-x="393" 
d="M362 284h-325v91c138 74 207 145 207 205c0 30 -18 47 -46 47c-29 0 -48 -22 -48 -61v-10h-116c1 99 65 161 165 161c102 0 164 -51 164 -126c0 -69 -55 -147 -166 -212h165v-95z" />
    <glyph glyph-name="yacute" unicode="&#xfd;" horiz-adv-x="532" 
d="M262 -174h-159l81 207l-197 504h175l101 -313l114 313h170zM409 786l-153 -181h-69l96 181h126z" />
  </font>
</defs>
</svg>
