<?xml version="1.0" standalone="no"?>
<!DOCTYPE svg PUBLIC "-//W3C//DTD SVG 1.1//EN" "http://www.w3.org/Graphics/SVG/1.1/DTD/svg11.dtd" >
<svg xmlns="http://www.w3.org/2000/svg" width="100%" height="100%">
<metadata>
Created by FontXChange 20110222 at Thu Nov 19 10:49:04 2015
 By Jason Coe
Copyright 1990 as an unpublished work by Bitstream Inc.  All rights reserved.  Confidential.
</metadata>
<defs>
<font id="AvantGardeITCbyBT-Book" horiz-adv-x="500" >
  <font-face 
    font-family="ITC Avant Garde Gothic"
    font-weight="400"
    font-stretch="normal"
    units-per-em="1000"
    panose-1="2 0 5 3 0 0 0 0 0 0"
    ascent="800"
    descent="-200"
    x-height="537"
    cap-height="711"
    bbox="-167 -236 1272 963"
    underline-thickness="55"
    underline-position="-87"
    stemh="66"
    stemv="67"
    unicode-range="U+0020-FB02"
  />
    <missing-glyph />
    <glyph glyph-name="space" unicode=" " horiz-adv-x="282" 
 />
    <glyph glyph-name="exclam" unicode="!" horiz-adv-x="287" 
d="M178 0h-69v130h69v-130zM178 185h-69v526h69v-526z" />
    <glyph glyph-name="quotedbl" unicode="&#x22;" horiz-adv-x="278" 
d="M97 700v-270h-49v270h49zM231 700v-270h-50v270h50z" />
    <glyph glyph-name="numbersign" unicode="#" horiz-adv-x="769" 
d="M448 710l-82 -236h129l84 236h62l-83 -236h154l-18 -52h-155l-48 -136h166l-18 -52h-166l-83 -234h-63l84 234h-131l-84 -234h-62l83 234h-160l19 52h159l49 136h-172l17 52h173l84 236h62zM476 422h-130l-47 -136h130z" />
    <glyph glyph-name="dollar" unicode="$" horiz-adv-x="565" 
d="M74 211h68v-8c0 -91 48 -140 139 -140c88 0 140 52 140 131c0 100 -64 116 -166 150c-107 35 -163 75 -163 177c0 93 63 172 156 184v104h70v-104c96 -11 153 -75 158 -178h-70v2c0 71 -47 118 -119 118c-80 0 -126 -50 -126 -122c0 -91 77 -102 183 -141
c101 -37 148 -85 148 -179c0 -111 -69 -194 -174 -203v-120h-70v120c-104 11 -174 95 -174 209z" />
    <glyph glyph-name="percent" unicode="%" horiz-adv-x="877" 
d="M482 161c0 97 77 175 175 175c97 0 175 -78 175 -175c0 -98 -77 -175 -175 -175s-175 77 -175 175zM544 161c0 -61 49 -111 111 -111c61 0 111 49 111 111c0 61 -50 110 -111 110c-62 0 -111 -49 -111 -110zM600 725h57l-380 -739h-57zM44 550c0 97 77 175 175 175
c97 0 176 -78 176 -175c0 -98 -78 -175 -176 -175s-175 77 -175 175zM107 549c0 -62 50 -111 111 -111s110 49 110 111c0 61 -48 110 -110 110s-111 -49 -111 -110z" />
    <glyph glyph-name="ampersand" unicode="&#x26;" horiz-adv-x="694" 
d="M485 135c-45 -98 -123 -149 -215 -149c-112 0 -207 93 -207 214c0 83 50 164 135 203c-57 51 -82 89 -82 154c0 89 72 167 174 167c90 0 164 -79 164 -167c0 -71 -47 -133 -136 -172l144 -133l84 221h76l-107 -271l159 -146l-44 -52zM434 181l-189 176
c-71 -35 -108 -90 -108 -157c0 -88 60 -144 137 -144c64 0 114 43 160 125zM271 431c74 29 110 72 110 129c0 56 -43 99 -94 99c-54 0 -98 -37 -98 -103c0 -49 28 -82 82 -125z" />
    <glyph glyph-name="quoteright" unicode="&#x2019;" horiz-adv-x="194" 
d="M81 502h-69l75 209h70z" />
    <glyph glyph-name="parenleft" unicode="(" horiz-adv-x="264" 
d="M211 725v-79c-73 -58 -81 -130 -81 -231v-321c0 -101 8 -173 81 -231v-79c-101 54 -150 152 -150 298v345c0 146 49 244 150 298z" />
    <glyph glyph-name="parenright" unicode=")" horiz-adv-x="264" 
d="M53 725c101 -54 150 -152 150 -298v-345c0 -146 -49 -244 -150 -298v79c73 58 81 130 81 231v321c0 101 -8 173 -81 231v79z" />
    <glyph glyph-name="asterisk" unicode="*" 
d="M249 479l-89 -129l-52 36l98 123l-145 42l18 58l142 -47v149h56v-149l141 47l20 -58l-147 -42l100 -123l-51 -36z" />
    <glyph glyph-name="plus" unicode="+" horiz-adv-x="833" 
d="M441 596v-274h268v-48h-268v-274h-48v274h-269v48h269v274h48z" />
    <glyph glyph-name="comma" unicode="," horiz-adv-x="282" 
d="M121 -79h-70l76 209h70z" />
    <glyph glyph-name="hyphen" unicode="-" horiz-adv-x="322" 
d="M275 301v-65h-229v65h229z" />
    <glyph glyph-name="period" unicode="." horiz-adv-x="282" 
d="M176 0h-70v130h70v-130z" />
    <glyph glyph-name="slash" unicode="/" horiz-adv-x="278" 
d="M35 -93h-59l243 804h59z" />
    <glyph glyph-name="zero" unicode="0" horiz-adv-x="565" 
d="M42 250v211c0 63 2 115 42 169c46 61 116 96 198 96c142 0 241 -90 241 -261v-218c0 -69 -9 -120 -39 -162c-45 -63 -118 -99 -202 -99c-81 0 -150 33 -199 96c-32 41 -41 95 -41 168zM111 235c0 -125 70 -187 171 -187c102 0 171 63 171 185v245c0 122 -70 185 -171 185
s-171 -63 -171 -188v-240z" />
    <glyph glyph-name="one" unicode="1" horiz-adv-x="565" 
d="M330 0h-74v650h-124v61h198v-711z" />
    <glyph glyph-name="two" unicode="2" horiz-adv-x="565" 
d="M506 0h-441v69l252 239c75 71 123 123 123 197c0 85 -61 157 -155 157c-91 0 -152 -65 -152 -169c0 -7 1 -13 1 -20h-69v11c0 146 96 242 226 242c117 0 217 -95 217 -226c0 -76 -37 -141 -111 -210l-240 -221h349v-69z" />
    <glyph glyph-name="three" unicode="3" horiz-adv-x="565" 
d="M124 216v-6c0 -96 68 -163 152 -163c91 0 160 66 160 164c0 108 -64 166 -188 166c-10 0 -22 0 -33 -1v59c11 -1 21 -1 31 -1c94 0 141 39 141 116c0 68 -47 114 -106 114c-69 0 -112 -43 -113 -120h-65c6 112 76 181 181 181c101 0 175 -84 175 -175
c0 -57 -21 -97 -69 -132c78 -41 117 -108 117 -200c0 -126 -92 -232 -227 -232c-138 0 -225 86 -227 230h71z" />
    <glyph glyph-name="four" unicode="4" horiz-adv-x="565" 
d="M445 0h-69v137h-333v62l322 512h80v-512h77v-62h-77v-137zM378 199l3 430l-265 -430h262z" />
    <glyph glyph-name="five" unicode="5" horiz-adv-x="565" 
d="M41 216h71c5 -96 85 -166 171 -166c95 0 171 80 171 187c0 106 -72 179 -179 179c-62 0 -110 -28 -147 -82l-54 25l63 352h321v-70h-261l-36 -198c41 29 79 42 126 42c142 0 237 -108 237 -250c0 -139 -109 -249 -243 -249c-125 0 -229 92 -240 230z" />
    <glyph glyph-name="six" unicode="6" horiz-adv-x="565" 
d="M303 711h87l-166 -257c29 7 55 11 77 11c130 0 223 -102 223 -237c0 -138 -101 -242 -243 -242c-144 0 -240 108 -240 234c0 93 49 160 101 241zM286 403c-99 0 -172 -79 -172 -176c0 -102 79 -179 173 -179c88 0 164 69 164 178c0 105 -71 177 -165 177z" />
    <glyph glyph-name="seven" unicode="7" horiz-adv-x="565" 
d="M208 0h-78l281 641h-311v70h392v-64z" />
    <glyph glyph-name="eight" unicode="8" horiz-adv-x="565" 
d="M163 397c-50 33 -76 81 -76 140c0 98 83 188 194 188c117 0 197 -89 197 -183c0 -65 -25 -111 -79 -145c75 -42 111 -100 111 -180c0 -131 -92 -231 -232 -231c-126 0 -223 101 -223 226c0 82 32 136 108 185zM126 204c0 -95 72 -157 152 -157c95 0 160 70 160 160
c0 95 -62 158 -155 158c-94 0 -157 -59 -157 -161zM157 548c0 -71 50 -119 121 -119c86 0 132 42 132 117c0 68 -52 116 -126 116c-71 0 -127 -48 -127 -114z" />
    <glyph glyph-name="nine" unicode="9" horiz-adv-x="565" 
d="M262 0h-87l166 258c-29 -7 -55 -11 -77 -11c-130 0 -223 102 -223 237c0 138 100 242 242 242c144 0 241 -108 241 -234c0 -93 -49 -160 -101 -241zM279 309c99 0 172 79 172 176c0 102 -79 178 -173 178c-88 0 -164 -68 -164 -177c0 -105 71 -177 165 -177z" />
    <glyph glyph-name="colon" unicode=":" horiz-adv-x="287" 
d="M178 0h-69v130h69v-130zM178 407h-69v130h69v-130z" />
    <glyph glyph-name="semicolon" unicode=";" horiz-adv-x="287" 
d="M178 537v-130h-69v130h69zM121 -79h-70l76 209h70z" />
    <glyph glyph-name="less" unicode="&#x3c;" horiz-adv-x="833" 
d="M704 501l-499 -203l499 -202v-53l-575 235v40l575 236v-53z" />
    <glyph glyph-name="equal" unicode="=" horiz-adv-x="833" 
d="M709 413v-48h-585v48h585zM709 231v-48h-585v48h585z" />
    <glyph glyph-name="greater" unicode="&#x3e;" horiz-adv-x="833" 
d="M704 318v-40l-575 -235v53l499 202l-499 203v53z" />
    <glyph glyph-name="question" unicode="?" horiz-adv-x="463" 
d="M197 0v130h70v-130h-70zM267 194h-70c0 61 25 119 75 173c43 46 88 67 88 149c0 87 -51 136 -129 136c-83 0 -133 -54 -137 -158h-72c2 142 89 231 213 231c119 0 199 -87 199 -210c0 -100 -48 -133 -93 -174c-48 -44 -73 -83 -74 -147z" />
    <glyph glyph-name="at" unicode="@" horiz-adv-x="1000" 
d="M591 229l30 121c-12 61 -52 97 -105 97c-102 0 -173 -100 -173 -230c0 -73 38 -115 101 -115c69 0 128 50 147 127zM634 408l29 61h46l-68 -274c-5 -22 -8 -36 -8 -45c0 -28 19 -45 52 -45c32 0 69 13 103 40c62 49 100 135 100 238c0 161 -138 283 -345 283
c-114 0 -208 -32 -284 -97c-96 -82 -145 -190 -145 -319c0 -112 37 -196 119 -262c65 -53 161 -85 266 -85c113 0 222 34 310 94l19 -27c-96 -72 -203 -108 -319 -108c-124 0 -226 30 -304 90c-101 77 -148 176 -148 310c0 133 57 251 165 340c86 71 195 108 322 108
c109 0 207 -32 272 -82c84 -65 127 -150 127 -248c0 -112 -42 -204 -119 -265c-45 -35 -98 -54 -151 -54c-63 0 -94 24 -94 74c0 4 1 9 1 14c-33 -57 -84 -88 -144 -88c-100 0 -153 56 -153 160c0 152 102 267 227 267c61 0 103 -27 124 -80z" />
    <glyph glyph-name="A" unicode="A" horiz-adv-x="597" 
d="M426 287l-135 357l-133 -357h268zM49 0h-74l276 711h84l275 -711h-75l-85 223h-316z" />
    <glyph glyph-name="B" unicode="B" horiz-adv-x="509" 
d="M66 711h132c155 0 234 -54 234 -188c0 -65 -25 -111 -76 -140c76 -32 115 -89 115 -173c0 -151 -84 -210 -248 -210h-157v711zM133 643v-239h42c117 0 186 22 186 122c0 85 -57 117 -168 117h-60zM133 336v-268h98c113 0 169 41 169 133c0 91 -56 135 -169 135h-98z" />
    <glyph glyph-name="C" unicode="C" horiz-adv-x="752" 
d="M633 527c-58 80 -132 129 -242 129c-161 0 -287 -139 -287 -297c0 -176 132 -306 287 -306c98 0 178 41 237 123h83c-65 -121 -178 -190 -315 -190c-211 0 -366 162 -366 374c0 99 38 190 111 262c68 68 153 103 251 103c141 0 259 -71 325 -198h-84z" />
    <glyph glyph-name="D" unicode="D" horiz-adv-x="667" 
d="M66 711h202c104 0 179 -18 241 -70c81 -68 128 -171 128 -284c0 -128 -53 -234 -142 -298c-80 -57 -159 -59 -258 -59h-171v711zM135 643v-576h145c185 0 282 110 282 292c0 94 -35 175 -96 228c-59 51 -122 56 -203 56h-128z" />
    <glyph glyph-name="E" unicode="E" horiz-adv-x="502" 
d="M136 392h299v-70h-299v-253h299v-69h-369v711h369v-70h-299v-249z" />
    <glyph glyph-name="F" unicode="F" horiz-adv-x="484" 
d="M66 0v711h351v-70h-282v-249h282v-70h-282v-322h-69z" />
    <glyph glyph-name="G" unicode="G" horiz-adv-x="787" 
d="M314 341h442c-12 -210 -168 -355 -365 -355c-204 0 -361 161 -361 374c0 99 38 190 111 262c70 69 154 103 259 103c139 0 252 -70 318 -193h-86c-66 84 -140 125 -236 125c-169 0 -292 -140 -292 -298c0 -177 130 -306 293 -306c127 0 244 89 276 225h-359v63z" />
    <glyph glyph-name="H" unicode="H" horiz-adv-x="611" 
d="M136 0h-70v711h70v-319h338v319h70v-711h-70v324h-338v-324z" />
    <glyph glyph-name="I" unicode="I" horiz-adv-x="201" 
d="M135 0h-70v711h70v-711z" />
    <glyph glyph-name="J" unicode="J" horiz-adv-x="447" 
d="M313 711h70v-464v-15c0 -66 -4 -117 -29 -159c-33 -56 -94 -88 -164 -88c-104 0 -177 72 -177 188h70c4 -73 52 -118 111 -118c107 0 119 79 119 206v450z" />
    <glyph glyph-name="K" unicode="K" horiz-adv-x="537" 
d="M134 219v-219h-69v711h69v-395l329 395h83l-287 -344l282 -367h-86l-241 315z" />
    <glyph glyph-name="L" unicode="L" horiz-adv-x="412" 
d="M386 0h-320v711h70v-642h250v-69z" />
    <glyph glyph-name="M" unicode="M" horiz-adv-x="826" 
d="M70 0v711h103l246 -618l245 618h103v-711h-67v628l-250 -628h-63l-250 628v-628h-67z" />
    <glyph glyph-name="N" unicode="N" horiz-adv-x="667" 
d="M538 85l-8 626h69v-711h-84l-390 627l8 -627h-69v711h84z" />
    <glyph glyph-name="O" unicode="O" horiz-adv-x="787" 
d="M30 360c0 99 39 191 111 262c69 68 153 103 251 103c100 0 185 -35 255 -104c72 -71 109 -160 109 -261s-31 -185 -94 -254c-72 -79 -164 -120 -271 -120c-204 0 -361 162 -361 374zM103 359c0 -176 130 -306 293 -306c160 0 288 133 288 308c0 158 -128 296 -293 296
c-66 0 -128 -23 -179 -66c-67 -57 -109 -145 -109 -232z" />
    <glyph glyph-name="P" unicode="P" horiz-adv-x="505" 
d="M58 711h151c76 0 130 -6 169 -29c62 -37 97 -99 97 -175c0 -72 -32 -136 -86 -172c-42 -28 -96 -36 -168 -36h-93v-299h-70v711zM128 641v-271h103c111 0 168 40 168 134c0 101 -60 137 -174 137h-97z" />
    <glyph glyph-name="Q" unicode="Q" horiz-adv-x="787" 
d="M530 87c-93 97 -156 152 -270 152c-40 0 -78 -11 -121 -31c55 -100 154 -156 257 -156c45 0 88 12 134 35zM587 129c64 64 97 145 97 232c0 158 -128 296 -293 296c-161 0 -288 -142 -288 -294c0 -31 4 -61 12 -92c51 24 98 35 152 35c129 0 213 -63 320 -177zM641 85
c32 -21 68 -28 114 -28h9v-62c-14 -1 -26 -2 -35 -2c-43 0 -96 17 -143 50c-58 -38 -123 -57 -194 -57c-201 0 -362 160 -362 374c0 99 39 191 111 262c69 68 153 103 251 103c204 0 364 -153 364 -377c0 -105 -37 -190 -115 -263z" />
    <glyph glyph-name="R" unicode="R" horiz-adv-x="556" 
d="M125 641v-641h-69v711h191c67 0 121 -6 171 -41c57 -40 92 -111 92 -185c0 -108 -72 -200 -172 -207l172 -278h-83l-211 343h67c92 0 152 60 152 141c0 50 -17 91 -51 122c-39 35 -89 35 -156 35h-103z" />
    <glyph glyph-name="S" unicode="S" horiz-adv-x="465" 
d="M28 203h68c2 -89 55 -144 130 -144c84 0 135 57 135 144c0 103 -68 119 -167 152c-100 34 -147 83 -147 176c0 110 75 193 190 193c105 0 172 -67 179 -188h-66c-7 78 -48 121 -113 121c-72 0 -120 -52 -120 -122c0 -37 13 -63 42 -85c34 -25 85 -34 142 -56
c90 -35 130 -86 130 -178c0 -136 -80 -230 -206 -230c-115 0 -195 87 -197 217z" />
    <glyph glyph-name="T" unicode="T" horiz-adv-x="366" 
d="M218 0h-70v641h-142v70h354v-70h-142v-641z" />
    <glyph glyph-name="U" unicode="U" horiz-adv-x="565" 
d="M55 711h70v-435v-15c0 -48 1 -88 18 -124c25 -53 77 -86 139 -86c111 0 158 76 158 225v435h69v-452c0 -183 -72 -274 -222 -274c-162 0 -232 89 -232 274v452z" />
    <glyph glyph-name="V" unicode="V" horiz-adv-x="556" 
d="M-20 711h70l225 -606l226 606h70l-268 -711h-55z" />
    <glyph glyph-name="W" unicode="W" horiz-adv-x="813" 
d="M439 711l143 -583l178 583h68l-220 -711h-58l-143 580l-143 -580h-58l-221 711h69l177 -583l144 583h64z" />
    <glyph glyph-name="X" unicode="X" horiz-adv-x="569" 
d="M83 0h-86l247 358l-241 353h87l195 -295l195 295h86l-241 -353l247 -358h-88l-199 302z" />
    <glyph glyph-name="Y" unicode="Y" horiz-adv-x="479" 
d="M272 261v-261h-69v262l-227 449h80l182 -369l184 369h78z" />
    <glyph glyph-name="Z" unicode="Z" horiz-adv-x="458" 
d="M351 641h-312v70h393v-67l-333 -575h340v-69h-420v67z" />
    <glyph glyph-name="bracketleft" unicode="[" horiz-adv-x="264" 
d="M227 -143v-57h-162v911h162v-58h-93v-796h93z" />
    <glyph glyph-name="backslash" unicode="\" horiz-adv-x="278" 
d="M243 -93l-243 804h58l244 -804h-59z" />
    <glyph glyph-name="bracketright" unicode="]" horiz-adv-x="264" 
d="M37 -143h93v796h-93v58h162v-911h-162v57z" />
    <glyph glyph-name="asciicircum" unicode="^" horiz-adv-x="1000" 
d="M534 712l259 -272h-70l-223 222l-224 -222h-70l260 272h68z" />
    <glyph glyph-name="underscore" unicode="_" 
d="M500 -187v-49h-500v49h500z" />
    <glyph glyph-name="quoteleft" unicode="&#x2018;" horiz-adv-x="194" 
d="M183 502h-70l-75 209h69z" />
    <glyph glyph-name="a" unicode="a" horiz-adv-x="630" 
d="M509 85c-43 -61 -120 -99 -206 -99c-162 0 -275 127 -275 280c0 158 117 283 281 283c83 0 154 -35 200 -98v86h67v-537h-67v85zM509 272c0 117 -99 213 -202 213c-110 0 -208 -91 -208 -222c0 -124 98 -213 206 -213c104 0 204 94 204 222z" />
    <glyph glyph-name="b" unicode="b" horiz-adv-x="630" 
d="M121 263c0 -117 98 -213 201 -213c110 0 208 91 208 222c0 124 -98 213 -206 213c-110 0 -203 -96 -203 -222zM121 711v-160v-64v-40c58 69 126 102 211 102c153 0 270 -126 270 -280c0 -158 -117 -283 -281 -283c-80 0 -145 31 -200 95v-81h-68v711h68z" />
    <glyph glyph-name="c" unicode="c" horiz-adv-x="606" 
d="M485 372c-42 77 -101 115 -186 115c-108 0 -199 -92 -199 -219c0 -124 88 -217 202 -217c81 0 149 41 183 117h76c-42 -117 -135 -183 -256 -183c-160 0 -277 131 -277 282c0 159 124 285 279 285c115 0 209 -64 254 -180h-76z" />
    <glyph glyph-name="d" unicode="d" horiz-adv-x="630" 
d="M507 452v120v139h69v-711h-69v81c-49 -61 -125 -95 -204 -95c-155 0 -275 124 -275 283c0 153 113 280 275 280c84 0 155 -33 204 -97zM509 263c0 128 -100 222 -204 222c-108 0 -206 -89 -206 -213c0 -131 98 -222 208 -222c103 0 202 96 202 213z" />
    <glyph glyph-name="e" unicode="e" horiz-adv-x="606" 
d="M506 305c-26 120 -96 182 -208 182c-102 0 -182 -68 -199 -182h407zM582 247h-485c9 -120 95 -196 206 -196c79 0 148 42 184 119h78c-50 -120 -143 -185 -260 -185c-161 0 -279 133 -279 284c0 160 114 283 282 283c159 0 274 -120 274 -300v-5z" />
    <glyph glyph-name="f" unicode="f" horiz-adv-x="275" 
d="M151 0h-67v477h-72v60h69v15c0 113 56 167 176 167h6v-62c-83 -1 -113 -29 -113 -105v-15h113v-60h-112v-477z" />
    <glyph glyph-name="g" unicode="g" horiz-adv-x="625" 
d="M99 273c0 -133 99 -221 204 -221c104 0 202 96 202 213c0 127 -97 222 -202 222c-107 0 -204 -89 -204 -214zM147 -44c21 -63 79 -99 156 -99c118 0 203 83 203 224v14c-52 -71 -119 -107 -199 -107c-164 0 -281 124 -281 282c0 159 120 280 275 280
c88 0 153 -30 205 -101v88h67v-448c0 -195 -106 -299 -265 -299c-122 0 -216 65 -241 166h80z" />
    <glyph glyph-name="h" unicode="h" horiz-adv-x="558" 
d="M54 711h68v-237c39 48 95 74 165 74c159 0 217 -91 217 -275v-273h-68v274c0 136 -29 208 -153 208c-63 0 -111 -26 -138 -73c-23 -40 -23 -86 -23 -148v-261h-68v711z" />
    <glyph glyph-name="i" unicode="i" horiz-adv-x="181" 
d="M56 0v537h69v-537h-69zM125 600h-69v111h69v-111z" />
    <glyph glyph-name="j" unicode="j" horiz-adv-x="181" 
d="M125 537v-539c0 -115 -22 -171 -120 -171h-15v64c66 0 66 26 66 97v549h69zM125 600h-69v111h69v-111z" />
    <glyph glyph-name="k" unicode="k" horiz-adv-x="414" 
d="M125 0h-69v711h69v-423l194 249h79l-195 -249l237 -288h-87l-228 280v-280z" />
    <glyph glyph-name="l" unicode="l" horiz-adv-x="181" 
d="M56 0v711h69v-711h-69z" />
    <glyph glyph-name="m" unicode="m" horiz-adv-x="931" 
d="M477 453c44 62 110 95 190 95c153 0 209 -93 209 -277v-271h-66v285c0 130 -35 197 -150 197c-61 0 -109 -26 -136 -73c-23 -40 -23 -86 -23 -148v-261h-65v301c0 121 -47 181 -153 181c-63 0 -111 -26 -138 -73c-23 -40 -23 -86 -23 -148v-261h-68v537h68v-61
c41 48 97 72 167 72c83 0 154 -38 188 -95z" />
    <glyph glyph-name="n" unicode="n" horiz-adv-x="558" 
d="M55 537h67v-61c43 49 98 72 169 72c80 0 143 -31 178 -85c31 -47 35 -104 35 -182v-281h-68v301c0 123 -43 181 -153 181c-63 0 -111 -26 -138 -73c-23 -40 -23 -86 -23 -148v-261h-67v537z" />
    <glyph glyph-name="o" unicode="o" horiz-adv-x="606" 
d="M26 268c0 161 128 286 273 286c159 0 281 -130 281 -279c0 -159 -121 -290 -276 -290c-161 0 -278 133 -278 283zM98 269c0 -124 89 -218 206 -218c113 0 204 92 204 219c0 129 -91 218 -210 218c-103 0 -200 -88 -200 -219z" />
    <glyph glyph-name="p" unicode="p" horiz-adv-x="630" 
d="M121 272c0 -128 99 -222 203 -222c108 0 206 89 206 213c0 131 -98 222 -208 222c-106 0 -201 -99 -201 -213zM53 537h68v-88c39 60 117 100 200 100c164 0 281 -124 281 -283c0 -153 -114 -280 -276 -280c-87 0 -159 35 -205 99v-37v-80v-142h-68v711z" />
    <glyph glyph-name="q" unicode="q" horiz-adv-x="630" 
d="M509 272c0 117 -99 213 -202 213c-110 0 -208 -91 -208 -222c0 -124 98 -213 206 -213c104 0 204 94 204 222zM507 537h69v-711h-69v146v109c-46 -61 -120 -95 -204 -95c-162 0 -275 127 -275 280c0 158 117 283 281 283c82 0 152 -35 198 -98v86z" />
    <glyph glyph-name="r" unicode="r" horiz-adv-x="250" 
d="M124 0h-70v537h65v-62c35 49 74 69 126 70v-75c-94 -8 -121 -56 -121 -146v-324z" />
    <glyph glyph-name="s" unicode="s" horiz-adv-x="389" 
d="M21 169h71v-2c0 -70 46 -116 100 -116c53 0 94 37 94 89c0 57 -32 82 -98 106c-84 30 -144 56 -144 154c0 84 70 151 156 151c91 0 149 -54 153 -148h-74c-3 52 -34 80 -83 80c-46 0 -79 -35 -79 -79c0 -33 12 -53 40 -70c33 -21 72 -25 107 -40c68 -29 98 -75 98 -148
c0 -92 -72 -160 -171 -160s-167 69 -170 183z" />
    <glyph glyph-name="t" unicode="t" horiz-adv-x="273" 
d="M102 0v468h-102v69h102v174h69v-174h102v-69h-102v-468h-69z" />
    <glyph glyph-name="u" unicode="u" horiz-adv-x="558" 
d="M53 537h68v-285c0 -131 33 -201 153 -201c62 0 110 26 138 73c23 39 23 86 23 149v264h69v-537h-69v58c-43 -52 -92 -72 -163 -72c-166 0 -219 91 -219 271v280z" />
    <glyph glyph-name="v" unicode="v" horiz-adv-x="477" 
d="M265 0h-63l-210 537h73l172 -433l173 433h75z" />
    <glyph glyph-name="w" unicode="w" horiz-adv-x="694" 
d="M496 135l130 402h73l-181 -537h-45l-126 409l-124 -409h-45l-181 537h72l131 -402l123 402h50z" />
    <glyph glyph-name="x" unicode="x" horiz-adv-x="414" 
d="M84 537l125 -203l134 203h79l-174 -257l173 -280h-78l-138 224l-144 -224h-76l182 279l-160 258h77z" />
    <glyph glyph-name="y" unicode="y" horiz-adv-x="461" 
d="M-16 537h79l166 -436l174 436h80l-290 -711h-74l72 175z" />
    <glyph glyph-name="z" unicode="z" horiz-adv-x="403" 
d="M381 0h-371v65l280 407h-249v65h325v-74l-274 -394h289v-69z" />
    <glyph glyph-name="braceleft" unicode="{" 
d="M417 669h-18c-92 0 -109 -31 -109 -124v-118c0 -97 -16 -145 -96 -168c80 -23 96 -71 96 -168v-118c0 -92 16 -124 105 -124c7 0 14 1 22 1v-52h-23c-137 0 -164 44 -164 180v119c0 99 -32 137 -123 137c-7 0 -14 -1 -22 -1v53c8 0 15 -1 22 -1c91 0 123 38 123 137v118
c0 136 28 181 164 181h23v-52z" />
    <glyph glyph-name="bar" unicode="|" 
d="M277 764v-1000h-53v1000h53z" />
    <glyph glyph-name="braceright" unicode="}" 
d="M271 540v-118c0 -99 32 -137 123 -137c7 0 14 1 22 1v-53c-8 0 -15 1 -22 1c-91 0 -123 -38 -123 -137v-119c0 -136 -28 -180 -164 -180h-23v52h19c90 0 108 29 108 123v118c0 97 15 145 96 168c-81 23 -96 71 -96 168v118c0 93 -16 125 -105 125c-7 0 -14 -1 -22 -1v52
h23c136 0 164 -45 164 -181z" />
    <glyph glyph-name="asciitilde" unicode="~" horiz-adv-x="833" 
d="M747 311c-66 -47 -128 -70 -189 -70c-54 0 -98 18 -141 33c-47 17 -91 34 -141 34c-59 0 -118 -28 -189 -78v55c68 47 130 71 189 71c54 0 97 -17 141 -33c48 -17 92 -35 141 -35c60 0 119 28 189 78v-55z" />
    <glyph glyph-name="exclamdown" unicode="&#xa1;" horiz-adv-x="287" 
d="M109 525h69v-525h-69v525zM109 711h69v-130h-69v130z" />
    <glyph glyph-name="cent" unicode="&#xa2;" horiz-adv-x="565" 
d="M475 444c-27 87 -88 132 -178 132c-104 0 -192 -93 -192 -223c0 -126 85 -221 197 -221c82 0 149 50 173 136h72c-38 -118 -114 -185 -220 -196v-112h-65v113c-135 19 -228 143 -228 280c0 143 92 260 228 281v103h65v-101c113 -13 188 -79 220 -192h-72z" />
    <glyph glyph-name="sterling" unicode="&#xa3;" horiz-adv-x="565" 
d="M420 396v-69h-188c27 -48 39 -91 39 -142c0 -45 -9 -82 -35 -123c20 -2 39 -3 56 -3c121 0 180 43 180 138c0 13 -3 34 -8 62h69c4 -22 7 -41 7 -58c0 -58 -21 -113 -59 -150c-42 -41 -95 -51 -171 -51h-251v62h109c28 35 39 70 39 116c0 58 -18 99 -51 150h-123v68h71
c-12 38 -20 72 -20 105c0 125 93 223 227 223c111 0 190 -66 213 -185h-64c-17 78 -73 123 -148 123c-96 0 -160 -68 -160 -159c0 -34 10 -69 27 -107h241z" />
    <glyph glyph-name="fraction" unicode="&#x2044;" horiz-adv-x="167" 
d="M-108 -14h-59l442 739h58z" />
    <glyph glyph-name="yen" unicode="&#xa5;" horiz-adv-x="565" 
d="M416 462h90v-54h-119l-43 -82h162v-54h-190v-272h-69v272h-191v54h163l-42 82h-121v54h92l-126 244h79l183 -365l180 365h79z" />
    <glyph glyph-name="florin" unicode="&#x192;" horiz-adv-x="565" 
d="M284 -23c-12 -129 -57 -182 -193 -182h-15l5 65h20c85 0 107 25 114 100l36 407h-125l5 65h125l10 110c11 126 37 180 185 180h24l-5 -63c-11 0 -18 1 -23 1c-94 0 -104 -28 -112 -112l-11 -116h126l-6 -65h-125z" />
    <glyph glyph-name="section" unicode="&#xa7;" 
d="M83 62h67v-6c0 -66 35 -103 95 -103c55 0 89 30 89 81c0 47 -27 72 -79 104l-105 65c-64 40 -97 86 -97 136c0 65 32 111 97 145c-32 24 -51 53 -51 101c0 79 61 140 153 140c94 0 153 -56 153 -153v-12h-63c-1 69 -35 107 -96 107c-48 0 -79 -33 -79 -80
c0 -38 23 -69 69 -96l99 -59c76 -45 110 -87 110 -153c0 -57 -32 -104 -95 -137c35 -31 52 -68 52 -111c0 -82 -69 -138 -159 -138c-98 0 -161 60 -161 154c0 5 1 10 1 15zM191 257l121 -77c42 28 62 55 62 93c0 44 -25 72 -76 104l-108 67c-45 -18 -69 -50 -69 -88
c0 -34 24 -70 70 -99z" />
    <glyph glyph-name="currency" unicode="&#xa4;" horiz-adv-x="606" 
d="M176 591c38 29 80 44 127 44s91 -15 128 -44l100 100l32 -32l-100 -100c28 -38 43 -81 43 -127s-15 -88 -43 -126l100 -101l-32 -32l-100 100c-38 -29 -81 -44 -128 -44s-88 15 -127 44l-100 -100l-32 32l100 101c-28 38 -44 80 -44 126s16 89 44 127l-100 100l32 32z
M461 433c0 86 -69 157 -157 157c-87 0 -159 -71 -159 -157c0 -87 72 -159 159 -159c88 0 157 73 157 159z" />
    <glyph glyph-name="quotesingle" unicode="'" horiz-adv-x="144" 
d="M97 700v-270h-49v270h49z" />
    <glyph glyph-name="quotedblleft" unicode="&#x201c;" horiz-adv-x="338" 
d="M113 502l-75 209h69l76 -209h-70zM257 502l-76 209h70l75 -209h-69z" />
    <glyph glyph-name="guillemotleft" unicode="&#xab;" horiz-adv-x="456" 
d="M176 112l-120 156l120 157h67l-121 -157l121 -156h-67zM324 112l-120 156l120 157h67l-120 -157l120 -156h-67z" />
    <glyph glyph-name="guilsinglleft" unicode="&#x2039;" horiz-adv-x="308" 
d="M176 112l-120 156l120 157h67l-121 -157l121 -156h-67z" />
    <glyph glyph-name="guilsinglright" unicode="&#x203a;" horiz-adv-x="308" 
d="M132 112h-67l121 156l-121 157h67l120 -157z" />
    <glyph glyph-name="fi" unicode="&#xfb01;" horiz-adv-x="465" 
d="M398 600h-69v111h69v-111zM151 0h-67v477h-72v60h69v15c0 113 56 167 175 167h6v-62c-82 -1 -112 -29 -112 -105v-15h112v-60h-111v-477zM329 0v537h69v-537h-69z" />
    <glyph glyph-name="fl" unicode="&#xfb02;" horiz-adv-x="465" 
d="M151 0h-67v477h-72v60h69v15c0 113 56 167 176 167h5v-62c-82 -1 -112 -29 -112 -105v-15h112v-60h-111v-477zM329 0v711h69v-711h-69z" />
    <glyph glyph-name="endash" unicode="&#x2013;" 
d="M500 295v-55h-500v55h500z" />
    <glyph glyph-name="dagger" unicode="&#x2020;" 
d="M214 -113v558h-178v62h178v204h71v-204h179v-62h-179v-558h-71z" />
    <glyph glyph-name="daggerdbl" unicode="&#x2021;" 
d="M212 -113v204h-178v62h178v292h-178v62h178v204h71v-204h183v-62h-183v-292h183v-62h-183v-204h-71z" />
    <glyph glyph-name="periodcentered" unicode="&#xb7;" horiz-adv-x="282" 
d="M96 356c0 25 20 46 45 46s46 -21 46 -46s-21 -45 -46 -45s-45 20 -45 45z" />
    <glyph glyph-name="paragraph" unicode="&#xb6;" 
d="M459 688h-62v-688h-40v688h-92v-688h-40v382c-115 5 -184 73 -184 170c0 100 74 170 192 170h226v-34z" />
    <glyph glyph-name="bullet" unicode="&#x2022;" horiz-adv-x="590" 
d="M150 372c0 80 65 144 145 144c79 0 144 -64 144 -144c0 -79 -65 -145 -145 -145s-144 65 -144 145z" />
    <glyph glyph-name="quotesinglbase" unicode="&#x201a;" horiz-adv-x="194" 
d="M81 -79h-69l75 209h70z" />
    <glyph glyph-name="quotedblbase" unicode="&#x201e;" horiz-adv-x="338" 
d="M81 -79h-69l75 209h70zM225 -79h-70l76 209h69z" />
    <glyph glyph-name="quotedblright" unicode="&#x201d;" horiz-adv-x="338" 
d="M81 502h-69l75 209h70zM225 502h-70l76 209h69z" />
    <glyph glyph-name="guillemotright" unicode="&#xbb;" horiz-adv-x="456" 
d="M132 112h-67l121 156l-121 157h67l120 -157zM280 112h-66l120 156l-120 157h66l121 -157z" />
    <glyph glyph-name="ellipsis" unicode="&#x2026;" horiz-adv-x="1000" 
d="M202 0h-70v130h70v-130zM535 0h-70v130h70v-130zM869 0h-70v130h70v-130z" />
    <glyph glyph-name="perthousand" unicode="&#x2030;" horiz-adv-x="1315" 
d="M482 161c0 97 77 175 175 175c97 0 175 -78 175 -175c0 -98 -77 -175 -175 -175s-175 77 -175 175zM545 161c0 -62 49 -111 111 -111c61 0 111 49 111 111c0 61 -49 110 -111 110s-111 -49 -111 -110zM601 725h56l-379 -739h-57zM922 161c0 97 77 175 175 175
c97 0 175 -78 175 -175c0 -98 -77 -175 -175 -175s-175 77 -175 175zM984 160c0 -61 49 -110 111 -110c61 0 111 48 111 110c0 61 -50 111 -111 111c-62 0 -111 -50 -111 -111zM44 550c0 97 78 175 176 175c97 0 175 -78 175 -175c0 -98 -77 -175 -175 -175
s-176 77 -176 175zM107 548c0 -62 48 -111 110 -111c61 0 111 49 111 111c0 61 -49 111 -111 111s-110 -50 -110 -111z" />
    <glyph glyph-name="questiondown" unicode="&#xbf;" horiz-adv-x="463" 
d="M259 711v-130h-70v130h70zM189 517h70c0 -61 -25 -119 -75 -173c-43 -46 -88 -67 -88 -149c0 -87 51 -137 129 -137c83 0 133 55 137 159h72c-2 -142 -89 -231 -213 -231c-119 0 -199 86 -199 209c0 100 48 134 93 175c48 44 73 83 74 147z" />
    <glyph glyph-name="grave" unicode="`" 
d="M266 609l-131 171h74l102 -171h-45z" />
    <glyph glyph-name="acute" unicode="&#xb4;" 
d="M234 609h-45l102 171h74z" />
    <glyph glyph-name="circumflex" unicode="&#x2c6;" 
d="M115 609l98 171h74l98 -171h-45l-90 129l-90 -129h-45z" />
    <glyph glyph-name="tilde" unicode="&#x2dc;" 
d="M391 732c-17 -60 -49 -90 -93 -90c-10 0 -21 2 -32 5l-47 15c-7 2 -15 4 -26 4c-19 0 -35 -12 -45 -36h-39c14 59 48 90 95 90c9 0 18 -1 26 -4l47 -15c11 -4 21 -5 27 -5c22 0 36 11 47 36h40z" />
    <glyph glyph-name="macron" unicode="&#xaf;" 
d="M125 657v57h250v-57h-250z" />
    <glyph glyph-name="breve" unicode="&#x2d8;" 
d="M116 759h39c4 -50 34 -71 95 -71s90 20 94 71h40c-6 -89 -47 -128 -134 -128c-86 0 -128 39 -134 128z" />
    <glyph glyph-name="dotaccent" unicode="&#x2d9;" 
d="M213 644v86h74v-86h-74z" />
    <glyph glyph-name="dieresis" unicode="&#xa8;" 
d="M125 641v80h69v-80h-69zM305 641v80h70v-80h-70z" />
    <glyph glyph-name="ring" unicode="&#x2da;" 
d="M133 718c0 65 51 117 117 117c65 0 118 -52 118 -117s-53 -118 -118 -118c-66 0 -117 53 -117 118zM177 717c0 -41 32 -73 73 -73c40 0 73 32 73 73s-33 74 -73 74c-41 0 -73 -33 -73 -74z" />
    <glyph glyph-name="cedilla" unicode="&#xb8;" 
d="M250 -54h10c70 0 107 -30 107 -84s-38 -86 -111 -86c-44 0 -83 8 -123 19v38c47 -10 85 -17 116 -17c42 0 63 15 63 44c0 36 -22 51 -70 51c-7 0 -15 0 -23 -1v90h31v-54z" />
    <glyph glyph-name="hungarumlaut" unicode="&#x2dd;" 
d="M164 609l73 171h65l-102 -171h-36zM279 609l82 171h65l-111 -171h-36z" />
    <glyph glyph-name="ogonek" unicode="&#x2db;" 
d="M283 0c-47 -41 -71 -80 -71 -115c0 -31 15 -42 53 -42h37v-51h-36c-69 0 -102 24 -102 79c0 39 29 83 89 129h30z" />
    <glyph glyph-name="caron" unicode="&#x2c7;" 
d="M115 780h45l90 -128l90 128h45l-98 -170h-74z" />
    <glyph glyph-name="emdash" unicode="&#x2014;" horiz-adv-x="1000" 
d="M0 240v55h1000v-55h-1000z" />
    <glyph glyph-name="AE" unicode="&#xc6;" horiz-adv-x="884" 
d="M179 236l-161 -236h-84l489 711h402v-70h-299v-249h299v-70h-299v-253h299v-69h-369v236h-277zM227 306h231l3 335h-8z" />
    <glyph glyph-name="ordfeminine" unicode="&#xaa;" horiz-adv-x="473" 
d="M382 394c-32 -42 -90 -69 -155 -69c-121 0 -206 89 -206 196c0 111 88 198 211 198c62 0 115 -24 150 -68v60h50v-376h-50v59zM382 525c0 82 -74 149 -152 149c-82 0 -156 -63 -156 -155c0 -87 74 -149 155 -149c78 0 153 66 153 155z" />
    <glyph glyph-name="Lslash" unicode="&#x141;" horiz-adv-x="419" 
d="M393 0h-320v281l-73 -52v70l73 51v361h70v-313l125 87v-71l-125 -86v-259h250v-69z" />
    <glyph glyph-name="Oslash" unicode="&#xd8;" horiz-adv-x="787" 
d="M138 92c-71 77 -107 167 -107 269c0 99 38 189 111 261c69 68 154 103 255 103c79 0 146 -22 209 -69l84 101l47 -37l-87 -104c70 -67 106 -153 106 -256c0 -217 -161 -373 -364 -373c-78 0 -139 19 -208 68l-101 -122l-46 38zM604 560l-375 -451c54 -37 105 -55 163 -55
c167 0 292 136 292 305c0 78 -27 144 -80 201zM184 148l376 453c-52 39 -100 56 -161 56c-172 0 -294 -141 -294 -298c0 -83 29 -159 79 -211z" />
    <glyph glyph-name="OE" unicode="&#x152;" horiz-adv-x="1090" 
d="M103 359c0 -176 130 -306 293 -306c160 0 288 133 288 308c0 158 -128 296 -293 296c-66 0 -128 -23 -179 -66c-67 -57 -109 -145 -109 -232zM680 127c-80 -96 -171 -141 -289 -141c-203 0 -361 161 -361 374c0 99 39 191 111 262c69 68 153 103 251 103
c120 0 219 -49 288 -142v128h369v-70h-299v-249h299v-70h-299v-253h299v-69h-369v127z" />
    <glyph glyph-name="ordmasculine" unicode="&#xba;" horiz-adv-x="455" 
d="M20 523c0 112 96 200 204 200c120 0 211 -91 211 -196c0 -111 -91 -202 -207 -202c-121 0 -208 93 -208 198zM74 523c0 -87 66 -152 154 -152c85 0 153 64 153 153c0 90 -68 153 -157 153c-78 0 -150 -62 -150 -154z" />
    <glyph glyph-name="ae" unicode="&#xe6;" horiz-adv-x="1088" 
d="M509 272c0 117 -99 215 -202 215c-110 0 -208 -93 -208 -224c0 -124 98 -213 206 -213c104 0 204 94 204 222zM988 305c-24 117 -99 182 -202 182c-106 0 -184 -68 -204 -182h406zM576 0h-69v75c-57 -61 -121 -90 -204 -90c-162 0 -275 128 -275 281
c0 158 117 283 281 283c76 0 138 -29 198 -89v77h69v-79c53 55 119 91 213 91c156 0 273 -118 273 -297v-7h-482c9 -117 96 -195 205 -195c79 0 147 42 183 118h77c-49 -118 -141 -183 -258 -183c-88 0 -155 28 -211 90v-75z" />
    <glyph glyph-name="dotlessi" unicode="&#x131;" horiz-adv-x="181" 
d="M56 0v537h69v-537h-69z" />
    <glyph glyph-name="lslash" unicode="&#x142;" horiz-adv-x="190" 
d="M65 0v315l-65 -45v68l65 46v327h69v-282l65 46v-69l-65 -45v-361h-69z" />
    <glyph glyph-name="oslash" unicode="&#xf8;" horiz-adv-x="606" 
d="M416 452c-27 23 -68 36 -112 36c-113 0 -206 -89 -206 -219c0 -54 15 -101 46 -142zM186 88c35 -26 69 -37 111 -37c123 0 211 91 211 220c0 53 -15 99 -48 144zM56 -67l-41 39l86 103c-48 51 -75 122 -75 193c0 160 124 285 277 285c58 0 112 -17 156 -49l82 98l45 -35
l-84 -101c51 -52 78 -122 78 -195c0 -152 -118 -286 -282 -286c-57 0 -105 16 -155 51z" />
    <glyph glyph-name="oe" unicode="&#x153;" horiz-adv-x="1088" 
d="M98 269c0 -124 89 -218 206 -218c113 0 204 92 204 219c0 129 -91 218 -210 218c-103 0 -200 -88 -200 -219zM988 305c-24 117 -99 183 -202 183c-106 0 -190 -73 -204 -183h406zM1062 245h-482c9 -117 96 -194 205 -194c79 0 147 41 183 117h77
c-48 -118 -142 -183 -263 -183c-105 0 -185 50 -238 146c-51 -97 -131 -146 -240 -146c-161 0 -278 132 -278 283c0 160 125 285 280 285c101 0 188 -53 238 -146c54 93 144 146 244 146c157 0 274 -120 274 -306v-2z" />
    <glyph glyph-name="germandbls" unicode="&#xdf;" horiz-adv-x="586" 
d="M56 471c0 164 62 247 202 247c124 0 205 -84 205 -196c0 -66 -27 -113 -73 -127c104 -24 166 -92 166 -193c0 -123 -95 -216 -222 -216c-103 0 -169 49 -209 155v-141h-69v471zM125 479v-304h68c26 -84 74 -125 143 -125c80 0 147 65 147 140c0 95 -65 145 -193 145h-44
v56h3c89 0 141 52 141 131c0 77 -57 130 -134 130c-80 0 -131 -52 -131 -138v-35z" />
    <glyph glyph-name="Aacute" unicode="&#xc1;" horiz-adv-x="597" 
d="M426 287l-135 357l-133 -357h268zM49 0h-74l276 711h84l275 -711h-75l-85 223h-316zM276 780h-45l102 171h74z" />
    <glyph glyph-name="Acircumflex" unicode="&#xc2;" horiz-adv-x="597" 
d="M426 287l-135 357l-133 -357h268zM49 0h-74l276 711h84l275 -711h-75l-85 223h-316zM157 780l98 171h74l98 -171h-45l-90 129l-90 -129h-45z" />
    <glyph glyph-name="Adieresis" unicode="&#xc4;" horiz-adv-x="597" 
d="M426 287l-135 357l-133 -357h268zM49 0h-74l276 711h84l275 -711h-75l-85 223h-316zM167 812v80h69v-80h-69zM347 812v80h70v-80h-70z" />
    <glyph glyph-name="Agrave" unicode="&#xc0;" horiz-adv-x="597" 
d="M426 287l-135 357l-133 -357h268zM49 0h-74l276 711h84l275 -711h-75l-85 223h-316zM308 780l-131 171h74l102 -171h-45z" />
    <glyph glyph-name="Aring" unicode="&#xc5;" horiz-adv-x="597" 
d="M49 0h-74l276 711h84l275 -711h-75l-85 223h-316zM426 287l-135 357l-133 -357h268zM181 851c0 62 50 112 112 112s112 -50 112 -112s-50 -112 -112 -112c-63 0 -112 50 -112 112zM225 851c0 -39 31 -69 69 -69c39 0 70 31 70 69s-32 71 -70 71s-69 -32 -69 -71z" />
    <glyph glyph-name="Atilde" unicode="&#xc3;" horiz-adv-x="597" 
d="M426 287l-135 357l-133 -357h268zM49 0h-74l276 711h84l275 -711h-75l-85 223h-316zM433 903c-17 -60 -49 -90 -93 -90c-10 0 -21 2 -32 5l-47 15c-7 2 -15 4 -26 4c-19 0 -35 -12 -45 -36h-39c14 59 48 90 95 90c9 0 18 -1 26 -4l47 -15c11 -4 21 -5 27 -5
c22 0 36 11 47 36h40z" />
    <glyph glyph-name="Ccedilla" unicode="&#xc7;" horiz-adv-x="752" 
d="M633 527c-58 80 -132 129 -242 129c-161 0 -287 -139 -287 -297c0 -176 132 -306 287 -306c98 0 178 41 237 123h83c-65 -121 -178 -190 -315 -190c-211 0 -366 162 -366 374c0 99 38 190 111 262c68 68 153 103 251 103c141 0 259 -71 325 -198h-84zM391 -54h10
c70 0 107 -30 107 -84s-38 -86 -111 -86c-44 0 -83 8 -123 19v38c47 -10 85 -17 116 -17c42 0 63 15 63 44c0 36 -22 51 -70 51c-7 0 -15 0 -23 -1v90h31v-54z" />
    <glyph glyph-name="Eacute" unicode="&#xc9;" horiz-adv-x="502" 
d="M136 392h299v-70h-299v-253h299v-69h-369v711h369v-70h-299v-249zM242 780h-45l102 171h74z" />
    <glyph glyph-name="Ecircumflex" unicode="&#xca;" horiz-adv-x="502" 
d="M136 392h299v-70h-299v-253h299v-69h-369v711h369v-70h-299v-249zM123 780l98 171h74l98 -171h-45l-90 129l-90 -129h-45z" />
    <glyph glyph-name="Edieresis" unicode="&#xcb;" horiz-adv-x="502" 
d="M136 392h299v-70h-299v-253h299v-69h-369v711h369v-70h-299v-249zM133 812v80h69v-80h-69zM313 812v80h70v-80h-70z" />
    <glyph glyph-name="Egrave" unicode="&#xc8;" horiz-adv-x="502" 
d="M136 392h299v-70h-299v-253h299v-69h-369v711h369v-70h-299v-249zM274 780l-131 171h74l102 -171h-45z" />
    <glyph glyph-name="Iacute" unicode="&#xcd;" horiz-adv-x="201" 
d="M135 0h-70v711h70v-711zM85 780h-45l102 171h74z" />
    <glyph glyph-name="Icircumflex" unicode="&#xce;" horiz-adv-x="201" 
d="M135 0h-70v711h70v-711zM-34 780l98 171h74l98 -171h-45l-90 129l-90 -129h-45z" />
    <glyph glyph-name="Idieresis" unicode="&#xcf;" horiz-adv-x="201" 
d="M135 0h-70v711h70v-711zM-24 812v80h69v-80h-69zM156 812v80h70v-80h-70z" />
    <glyph glyph-name="Igrave" unicode="&#xcc;" horiz-adv-x="201" 
d="M135 0h-70v711h70v-711zM117 780l-131 171h74l102 -171h-45z" />
    <glyph glyph-name="Ntilde" unicode="&#xd1;" horiz-adv-x="667" 
d="M538 85l-8 626h69v-711h-84l-390 627l8 -627h-69v711h84zM475 903c-17 -60 -49 -90 -93 -90c-10 0 -21 2 -32 5l-47 15c-7 2 -15 4 -26 4c-19 0 -35 -12 -45 -36h-39c14 59 48 90 95 90c9 0 18 -1 26 -4l47 -15c11 -4 21 -5 27 -5c22 0 36 11 47 36h40z" />
    <glyph glyph-name="Oacute" unicode="&#xd3;" horiz-adv-x="787" 
d="M30 360c0 99 39 191 111 262c69 68 153 103 251 103c100 0 185 -35 255 -104c72 -71 109 -160 109 -261s-31 -185 -94 -254c-72 -79 -164 -120 -271 -120c-204 0 -361 162 -361 374zM103 359c0 -176 130 -306 293 -306c160 0 288 133 288 308c0 158 -128 296 -293 296
c-66 0 -128 -23 -179 -66c-67 -57 -109 -145 -109 -232zM378 780h-45l102 171h74z" />
    <glyph glyph-name="Ocircumflex" unicode="&#xd4;" horiz-adv-x="787" 
d="M30 360c0 99 39 191 111 262c69 68 153 103 251 103c100 0 185 -35 255 -104c72 -71 109 -160 109 -261s-31 -185 -94 -254c-72 -79 -164 -120 -271 -120c-204 0 -361 162 -361 374zM103 359c0 -176 130 -306 293 -306c160 0 288 133 288 308c0 158 -128 296 -293 296
c-66 0 -128 -23 -179 -66c-67 -57 -109 -145 -109 -232zM259 780l98 171h74l98 -171h-45l-90 129l-90 -129h-45z" />
    <glyph glyph-name="Odieresis" unicode="&#xd6;" horiz-adv-x="787" 
d="M30 360c0 99 39 191 111 262c69 68 153 103 251 103c100 0 185 -35 255 -104c72 -71 109 -160 109 -261s-31 -185 -94 -254c-72 -79 -164 -120 -271 -120c-204 0 -361 162 -361 374zM103 359c0 -176 130 -306 293 -306c160 0 288 133 288 308c0 158 -128 296 -293 296
c-66 0 -128 -23 -179 -66c-67 -57 -109 -145 -109 -232zM269 812v80h69v-80h-69zM449 812v80h70v-80h-70z" />
    <glyph glyph-name="Ograve" unicode="&#xd2;" horiz-adv-x="787" 
d="M30 360c0 99 39 191 111 262c69 68 153 103 251 103c100 0 185 -35 255 -104c72 -71 109 -160 109 -261s-31 -185 -94 -254c-72 -79 -164 -120 -271 -120c-204 0 -361 162 -361 374zM103 359c0 -176 130 -306 293 -306c160 0 288 133 288 308c0 158 -128 296 -293 296
c-66 0 -128 -23 -179 -66c-67 -57 -109 -145 -109 -232zM410 780l-131 171h74l102 -171h-45z" />
    <glyph glyph-name="Otilde" unicode="&#xd5;" horiz-adv-x="787" 
d="M30 360c0 99 39 191 111 262c69 68 153 103 251 103c100 0 185 -35 255 -104c72 -71 109 -160 109 -261s-31 -185 -94 -254c-72 -79 -164 -120 -271 -120c-204 0 -361 162 -361 374zM103 359c0 -176 130 -306 293 -306c160 0 288 133 288 308c0 158 -128 296 -293 296
c-66 0 -128 -23 -179 -66c-67 -57 -109 -145 -109 -232zM535 903c-17 -60 -49 -90 -93 -90c-10 0 -21 2 -32 5l-47 15c-7 2 -15 4 -26 4c-19 0 -35 -12 -45 -36h-39c14 59 48 90 95 90c9 0 18 -1 26 -4l47 -15c11 -4 21 -5 27 -5c22 0 36 11 47 36h40z" />
    <glyph glyph-name="Scaron" unicode="&#x160;" horiz-adv-x="465" 
d="M28 203h68c2 -89 55 -144 130 -144c84 0 135 57 135 144c0 103 -68 119 -167 152c-100 34 -147 83 -147 176c0 110 75 193 190 193c105 0 172 -67 179 -188h-66c-7 78 -48 121 -113 121c-72 0 -120 -52 -120 -122c0 -37 13 -63 42 -85c34 -25 85 -34 142 -56
c90 -35 130 -86 130 -178c0 -136 -80 -230 -206 -230c-115 0 -195 87 -197 217zM98 951h45l90 -128l90 128h45l-98 -170h-74z" />
    <glyph glyph-name="Uacute" unicode="&#xda;" horiz-adv-x="565" 
d="M55 711h70v-435v-15c0 -48 1 -88 18 -124c25 -53 77 -86 139 -86c111 0 158 76 158 225v435h69v-452c0 -183 -72 -274 -222 -274c-162 0 -232 89 -232 274v452zM267 780h-45l102 171h74z" />
    <glyph glyph-name="Ucircumflex" unicode="&#xdb;" horiz-adv-x="565" 
d="M55 711h70v-435v-15c0 -48 1 -88 18 -124c25 -53 77 -86 139 -86c111 0 158 76 158 225v435h69v-452c0 -183 -72 -274 -222 -274c-162 0 -232 89 -232 274v452zM148 780l98 171h74l98 -171h-45l-90 129l-90 -129h-45z" />
    <glyph glyph-name="Udieresis" unicode="&#xdc;" horiz-adv-x="565" 
d="M55 711h70v-435v-15c0 -48 1 -88 18 -124c25 -53 77 -86 139 -86c111 0 158 76 158 225v435h69v-452c0 -183 -72 -274 -222 -274c-162 0 -232 89 -232 274v452zM158 812v80h69v-80h-69zM338 812v80h70v-80h-70z" />
    <glyph glyph-name="Ugrave" unicode="&#xd9;" horiz-adv-x="565" 
d="M55 711h70v-435v-15c0 -48 1 -88 18 -124c25 -53 77 -86 139 -86c111 0 158 76 158 225v435h69v-452c0 -183 -72 -274 -222 -274c-162 0 -232 89 -232 274v452zM299 780l-131 171h74l102 -171h-45z" />
    <glyph glyph-name="Ydieresis" unicode="&#x178;" horiz-adv-x="479" 
d="M272 261v-261h-69v262l-227 449h80l182 -369l184 369h78zM115 812v80h69v-80h-69zM295 812v80h70v-80h-70z" />
    <glyph glyph-name="Zcaron" unicode="&#x17d;" horiz-adv-x="458" 
d="M351 641h-312v70h393v-67l-333 -575h340v-69h-420v67zM94 951h45l90 -128l90 128h45l-98 -170h-74z" />
    <glyph glyph-name="aacute" unicode="&#xe1;" horiz-adv-x="630" 
d="M509 85c-43 -61 -120 -99 -206 -99c-162 0 -275 127 -275 280c0 158 117 283 281 283c83 0 154 -35 200 -98v86h67v-537h-67v85zM509 272c0 117 -99 213 -202 213c-110 0 -208 -91 -208 -222c0 -124 98 -213 206 -213c104 0 204 94 204 222zM294 609h-45l102 171h74z" />
    <glyph glyph-name="acircumflex" unicode="&#xe2;" horiz-adv-x="630" 
d="M509 85c-43 -61 -120 -99 -206 -99c-162 0 -275 127 -275 280c0 158 117 283 281 283c83 0 154 -35 200 -98v86h67v-537h-67v85zM509 272c0 117 -99 213 -202 213c-110 0 -208 -91 -208 -222c0 -124 98 -213 206 -213c104 0 204 94 204 222zM175 609l98 171h74l98 -171
h-45l-90 129l-90 -129h-45z" />
    <glyph glyph-name="adieresis" unicode="&#xe4;" horiz-adv-x="630" 
d="M509 85c-43 -61 -120 -99 -206 -99c-162 0 -275 127 -275 280c0 158 117 283 281 283c83 0 154 -35 200 -98v86h67v-537h-67v85zM509 272c0 117 -99 213 -202 213c-110 0 -208 -91 -208 -222c0 -124 98 -213 206 -213c104 0 204 94 204 222zM185 641v80h69v-80h-69z
M365 641v80h70v-80h-70z" />
    <glyph glyph-name="agrave" unicode="&#xe0;" horiz-adv-x="630" 
d="M509 85c-43 -61 -120 -99 -206 -99c-162 0 -275 127 -275 280c0 158 117 283 281 283c83 0 154 -35 200 -98v86h67v-537h-67v85zM509 272c0 117 -99 213 -202 213c-110 0 -208 -91 -208 -222c0 -124 98 -213 206 -213c104 0 204 94 204 222zM326 609l-131 171h74
l102 -171h-45z" />
    <glyph glyph-name="aring" unicode="&#xe5;" horiz-adv-x="630" 
d="M509 272c0 117 -99 213 -202 213c-110 0 -208 -91 -208 -222c0 -124 98 -213 206 -213c104 0 204 94 204 222zM509 85c-43 -61 -120 -99 -206 -99c-162 0 -275 127 -275 280c0 158 117 283 281 283c83 0 154 -35 200 -98v86h67v-537h-67v85zM203 689c0 62 50 112 112 112
s113 -50 113 -112s-51 -112 -113 -112c-63 0 -112 50 -112 112zM247 690c0 -39 31 -70 69 -70c39 0 70 32 70 70s-32 70 -70 70s-69 -31 -69 -70z" />
    <glyph glyph-name="atilde" unicode="&#xe3;" horiz-adv-x="630" 
d="M509 85c-43 -61 -120 -99 -206 -99c-162 0 -275 127 -275 280c0 158 117 283 281 283c83 0 154 -35 200 -98v86h67v-537h-67v85zM509 272c0 117 -99 213 -202 213c-110 0 -208 -91 -208 -222c0 -124 98 -213 206 -213c104 0 204 94 204 222zM451 732
c-17 -60 -49 -90 -93 -90c-10 0 -21 2 -32 5l-47 15c-7 2 -15 4 -26 4c-19 0 -35 -12 -45 -36h-39c14 59 48 90 95 90c9 0 18 -1 26 -4l47 -15c11 -4 21 -5 27 -5c22 0 36 11 47 36h40z" />
    <glyph glyph-name="ccedilla" unicode="&#xe7;" horiz-adv-x="606" 
d="M485 372c-42 77 -101 115 -186 115c-108 0 -199 -92 -199 -219c0 -124 88 -217 202 -217c81 0 149 41 183 117h76c-42 -117 -135 -183 -256 -183c-160 0 -277 131 -277 282c0 159 124 285 279 285c115 0 209 -64 254 -180h-76zM303 -54h10c70 0 107 -30 107 -84
s-38 -86 -111 -86c-44 0 -83 8 -123 19v38c47 -10 85 -17 116 -17c42 0 63 15 63 44c0 36 -22 51 -70 51c-7 0 -15 0 -23 -1v90h31v-54z" />
    <glyph glyph-name="eacute" unicode="&#xe9;" horiz-adv-x="606" 
d="M506 305c-26 120 -96 182 -208 182c-102 0 -182 -68 -199 -182h407zM582 247h-485c9 -120 95 -196 206 -196c79 0 148 42 184 119h78c-50 -120 -143 -185 -260 -185c-161 0 -279 133 -279 284c0 160 114 283 282 283c159 0 274 -120 274 -300v-5zM293 609h-45l102 171h74
z" />
    <glyph glyph-name="ecircumflex" unicode="&#xea;" horiz-adv-x="606" 
d="M506 305c-26 120 -96 182 -208 182c-102 0 -182 -68 -199 -182h407zM582 247h-485c9 -120 95 -196 206 -196c79 0 148 42 184 119h78c-50 -120 -143 -185 -260 -185c-161 0 -279 133 -279 284c0 160 114 283 282 283c159 0 274 -120 274 -300v-5zM174 609l98 171h74
l98 -171h-45l-90 129l-90 -129h-45z" />
    <glyph glyph-name="edieresis" unicode="&#xeb;" horiz-adv-x="606" 
d="M506 305c-26 120 -96 182 -208 182c-102 0 -182 -68 -199 -182h407zM582 247h-485c9 -120 95 -196 206 -196c79 0 148 42 184 119h78c-50 -120 -143 -185 -260 -185c-161 0 -279 133 -279 284c0 160 114 283 282 283c159 0 274 -120 274 -300v-5zM184 641v80h69v-80h-69z
M364 641v80h70v-80h-70z" />
    <glyph glyph-name="egrave" unicode="&#xe8;" horiz-adv-x="606" 
d="M506 305c-26 120 -96 182 -208 182c-102 0 -182 -68 -199 -182h407zM582 247h-485c9 -120 95 -196 206 -196c79 0 148 42 184 119h78c-50 -120 -143 -185 -260 -185c-161 0 -279 133 -279 284c0 160 114 283 282 283c159 0 274 -120 274 -300v-5zM325 609l-131 171h74
l102 -171h-45z" />
    <glyph glyph-name="iacute" unicode="&#xed;" horiz-adv-x="181" 
d="M56 0v537h69v-537h-69zM75 609h-45l102 171h74z" />
    <glyph glyph-name="icircumflex" unicode="&#xee;" horiz-adv-x="181" 
d="M56 0v537h69v-537h-69zM-44 609l98 171h74l98 -171h-45l-90 129l-90 -129h-45z" />
    <glyph glyph-name="idieresis" unicode="&#xef;" horiz-adv-x="181" 
d="M56 0v537h69v-537h-69zM-34 641v80h69v-80h-69zM146 641v80h70v-80h-70z" />
    <glyph glyph-name="igrave" unicode="&#xec;" horiz-adv-x="181" 
d="M56 0v537h69v-537h-69zM107 609l-131 171h74l102 -171h-45z" />
    <glyph glyph-name="ntilde" unicode="&#xf1;" horiz-adv-x="558" 
d="M55 537h67v-61c43 49 98 72 169 72c80 0 143 -31 178 -85c31 -47 35 -104 35 -182v-281h-68v301c0 123 -43 181 -153 181c-63 0 -111 -26 -138 -73c-23 -40 -23 -86 -23 -148v-261h-67v537zM426 732c-17 -60 -49 -90 -93 -90c-10 0 -21 2 -32 5l-47 15c-7 2 -15 4 -26 4
c-19 0 -35 -12 -45 -36h-39c14 59 48 90 95 90c9 0 18 -1 26 -4l47 -15c11 -4 21 -5 27 -5c22 0 36 11 47 36h40z" />
    <glyph glyph-name="oacute" unicode="&#xf3;" horiz-adv-x="606" 
d="M26 268c0 161 128 286 273 286c159 0 281 -130 281 -279c0 -159 -121 -290 -276 -290c-161 0 -278 133 -278 283zM98 269c0 -124 89 -218 206 -218c113 0 204 92 204 219c0 129 -91 218 -210 218c-103 0 -200 -88 -200 -219zM292 609h-45l102 171h74z" />
    <glyph glyph-name="ocircumflex" unicode="&#xf4;" horiz-adv-x="606" 
d="M26 268c0 161 128 286 273 286c159 0 281 -130 281 -279c0 -159 -121 -290 -276 -290c-161 0 -278 133 -278 283zM98 269c0 -124 89 -218 206 -218c113 0 204 92 204 219c0 129 -91 218 -210 218c-103 0 -200 -88 -200 -219zM173 609l98 171h74l98 -171h-45l-90 129
l-90 -129h-45z" />
    <glyph glyph-name="odieresis" unicode="&#xf6;" horiz-adv-x="606" 
d="M26 268c0 161 128 286 273 286c159 0 281 -130 281 -279c0 -159 -121 -290 -276 -290c-161 0 -278 133 -278 283zM98 269c0 -124 89 -218 206 -218c113 0 204 92 204 219c0 129 -91 218 -210 218c-103 0 -200 -88 -200 -219zM183 641v80h69v-80h-69zM363 641v80h70v-80
h-70z" />
    <glyph glyph-name="ograve" unicode="&#xf2;" horiz-adv-x="606" 
d="M26 268c0 161 128 286 273 286c159 0 281 -130 281 -279c0 -159 -121 -290 -276 -290c-161 0 -278 133 -278 283zM98 269c0 -124 89 -218 206 -218c113 0 204 92 204 219c0 129 -91 218 -210 218c-103 0 -200 -88 -200 -219zM324 609l-131 171h74l102 -171h-45z" />
    <glyph glyph-name="otilde" unicode="&#xf5;" horiz-adv-x="606" 
d="M26 268c0 161 128 286 273 286c159 0 281 -130 281 -279c0 -159 -121 -290 -276 -290c-161 0 -278 133 -278 283zM98 269c0 -124 89 -218 206 -218c113 0 204 92 204 219c0 129 -91 218 -210 218c-103 0 -200 -88 -200 -219zM449 732c-17 -60 -49 -90 -93 -90
c-10 0 -21 2 -32 5l-47 15c-7 2 -15 4 -26 4c-19 0 -35 -12 -45 -36h-39c14 59 48 90 95 90c9 0 18 -1 26 -4l47 -15c11 -4 21 -5 27 -5c22 0 36 11 47 36h40z" />
    <glyph glyph-name="scaron" unicode="&#x161;" horiz-adv-x="389" 
d="M21 169h71v-2c0 -70 46 -116 100 -116c53 0 94 37 94 89c0 57 -32 82 -98 106c-84 30 -144 56 -144 154c0 84 70 151 156 151c91 0 149 -54 153 -148h-74c-3 52 -34 80 -83 80c-46 0 -79 -35 -79 -79c0 -33 12 -53 40 -70c33 -21 72 -25 107 -40c68 -29 98 -75 98 -148
c0 -92 -72 -160 -171 -160s-167 69 -170 183zM60 780h45l90 -128l90 128h45l-98 -170h-74z" />
    <glyph glyph-name="uacute" unicode="&#xfa;" horiz-adv-x="558" 
d="M53 537h68v-285c0 -131 33 -201 153 -201c62 0 110 26 138 73c23 39 23 86 23 149v264h69v-537h-69v58c-43 -52 -92 -72 -163 -72c-166 0 -219 91 -219 271v280zM260 609h-45l102 171h74z" />
    <glyph glyph-name="ucircumflex" unicode="&#xfb;" horiz-adv-x="558" 
d="M53 537h68v-285c0 -131 33 -201 153 -201c62 0 110 26 138 73c23 39 23 86 23 149v264h69v-537h-69v58c-43 -52 -92 -72 -163 -72c-166 0 -219 91 -219 271v280zM141 609l98 171h74l98 -171h-45l-90 129l-90 -129h-45z" />
    <glyph glyph-name="udieresis" unicode="&#xfc;" horiz-adv-x="558" 
d="M53 537h68v-285c0 -131 33 -201 153 -201c62 0 110 26 138 73c23 39 23 86 23 149v264h69v-537h-69v58c-43 -52 -92 -72 -163 -72c-166 0 -219 91 -219 271v280zM151 641v80h69v-80h-69zM331 641v80h70v-80h-70z" />
    <glyph glyph-name="ugrave" unicode="&#xf9;" horiz-adv-x="558" 
d="M53 537h68v-285c0 -131 33 -201 153 -201c62 0 110 26 138 73c23 39 23 86 23 149v264h69v-537h-69v58c-43 -52 -92 -72 -163 -72c-166 0 -219 91 -219 271v280zM292 609l-131 171h74l102 -171h-45z" />
    <glyph glyph-name="ydieresis" unicode="&#xff;" horiz-adv-x="461" 
d="M-16 537h79l166 -436l174 436h80l-290 -711h-74l72 175zM106 641v80h69v-80h-69zM286 641v80h70v-80h-70z" />
    <glyph glyph-name="zcaron" unicode="&#x17e;" horiz-adv-x="403" 
d="M381 0h-371v65l280 407h-249v65h325v-74l-274 -394h289v-69zM67 780h45l90 -128l90 128h45l-98 -170h-74z" />
    <glyph glyph-name="trademark" unicode="&#x2122;" horiz-adv-x="833" 
d="M339 710v-28h-84v-231h-40v231h-86v28h210zM458 710l81 -206l76 206h57v-259h-35v228l-86 -228h-24l-91 228v-228h-35v259h57z" />
    <glyph glyph-name="copyright" unicode="&#xa9;" horiz-adv-x="833" 
d="M416 711c97 0 187 -37 255 -105c67 -67 103 -157 103 -253c0 -98 -36 -185 -103 -251c-70 -69 -161 -107 -255 -107s-183 37 -252 106c-68 68 -105 157 -105 252s38 185 107 255c66 67 153 103 250 103zM735 353c0 86 -33 166 -92 225c-61 61 -140 94 -227 94
c-86 0 -164 -32 -223 -92c-62 -63 -95 -143 -95 -227s33 -163 94 -224s140 -94 224 -94s165 33 228 95c59 58 91 136 91 223zM524 447c-12 52 -51 82 -106 82c-78 0 -126 -63 -126 -177c0 -110 49 -173 126 -173c58 0 101 35 112 92h56c-7 -81 -77 -139 -171 -139
c-113 0 -186 82 -186 223c0 135 79 219 191 219c88 0 153 -51 161 -127h-57z" />
    <glyph glyph-name="logicalnot" unicode="&#xac;" horiz-adv-x="833" 
d="M709 419v-245h-47v196h-538v49h585z" />
    <glyph glyph-name="registered" unicode="&#xae;" horiz-adv-x="833" 
d="M416 711c98 0 187 -36 255 -105c67 -67 103 -157 103 -253c0 -98 -36 -185 -103 -251c-70 -69 -161 -107 -255 -107c-95 0 -184 37 -252 106c-68 68 -105 157 -105 252c0 94 38 185 107 255c66 67 153 103 250 103zM735 352c0 87 -32 167 -91 226c-61 61 -141 94 -228 94
c-86 0 -163 -33 -222 -92c-62 -63 -96 -143 -96 -227s33 -163 94 -224s140 -94 224 -94s165 33 228 95c60 58 91 135 91 222zM427 565c114 0 170 -35 170 -114c0 -57 -37 -100 -97 -108l92 -190h-71l-87 181h-96v-181h-62v412h151zM415 523h-77v-148h77c81 0 118 16 118 72
c0 55 -37 76 -118 76z" />
    <glyph glyph-name="minus" unicode="&#x2212;" horiz-adv-x="833" 
d="M709 322v-48h-585v48h585z" />
    <glyph glyph-name="Eth" unicode="&#xd0;" horiz-adv-x="674" 
d="M73 0v326h-75v62h75v323h214c218 0 357 -149 357 -358c0 -121 -52 -224 -144 -292c-77 -57 -149 -61 -242 -61h-185zM293 643h-151v-255h175v-62h-175v-259h164c159 0 263 114 263 292c0 167 -98 284 -276 284z" />
    <glyph glyph-name="Thorn" unicode="&#xde;" horiz-adv-x="505" 
d="M58 711h70v-138h94c66 0 115 -4 153 -26c61 -36 100 -103 100 -175c0 -121 -87 -211 -254 -211h-93v-161h-70v711zM128 503v-270h103c112 0 167 47 167 136c0 47 -20 87 -52 110c-33 24 -72 24 -121 24h-97z" />
    <glyph glyph-name="Yacute" unicode="&#xdd;" horiz-adv-x="479" 
d="M272 261v-261h-69v262l-227 449h80l182 -369l184 369h78zM224 780h-45l102 171h74z" />
    <glyph glyph-name="brokenbar" unicode="&#xa6;" 
d="M277 699v-370h-53v370h53zM277 199v-370h-53v370h53z" />
    <glyph glyph-name="degree" unicode="&#xb0;" horiz-adv-x="329" 
d="M165 709c75 0 135 -61 135 -136c0 -74 -60 -136 -136 -136s-135 60 -135 136s61 136 136 136zM266 573c0 56 -45 102 -101 102s-102 -46 -102 -102c0 -57 46 -101 102 -101c57 0 101 45 101 101z" />
    <glyph glyph-name="divide" unicode="&#xf7;" horiz-adv-x="833" 
d="M417 523c29 0 52 -24 52 -53c0 -28 -22 -52 -52 -52s-52 23 -52 52s24 53 52 53zM709 322v-48h-585v48h585zM417 178c29 0 52 -23 52 -52c0 -28 -22 -52 -52 -52c-29 0 -52 23 -52 52s24 52 52 52z" />
    <glyph glyph-name="eth" unicode="&#xf0;" horiz-adv-x="606" 
d="M480 447c-22 60 -60 111 -111 150l-131 -48l-18 40l109 41c-18 11 -43 25 -78 42l21 45c38 -17 79 -37 120 -64l140 50l17 -39l-116 -43c96 -89 147 -206 147 -332c0 -190 -121 -303 -277 -303c-161 0 -277 125 -277 263c0 147 127 265 273 265c68 0 122 -22 181 -67z
M299 457c-104 0 -200 -85 -200 -204c0 -114 87 -202 205 -202c114 0 204 85 204 208c0 112 -89 198 -209 198z" />
    <glyph glyph-name="mu" unicode="&#x3bc;" horiz-adv-x="542" 
d="M168 520l-61 -289c-5 -23 -8 -45 -8 -68c0 -76 39 -119 110 -119c80 0 141 69 170 204l59 272h68l-80 -376c-7 -31 -11 -52 -11 -65c0 -21 11 -32 33 -32c2 0 8 0 18 1l-10 -54c-15 -4 -30 -5 -42 -5c-46 0 -67 23 -67 71v7c-27 -50 -80 -79 -146 -79
c-60 0 -106 27 -131 76l-56 -272h-68l154 728h68z" />
    <glyph glyph-name="multiply" unicode="&#xd7;" horiz-adv-x="833" 
d="M418 332l235 235l34 -34l-235 -235l235 -235l-34 -34l-235 235l-235 -235l-34 34l235 235l-235 235l34 34z" />
    <glyph glyph-name="onehalf" unicode="&#xbd;" horiz-adv-x="879" 
d="M208 313h-47v364h-78v34h125v-398zM248 -14h-59l442 739h58zM842 0h-278v39l159 133c47 40 77 69 77 111c0 47 -38 88 -97 88c-58 0 -96 -37 -96 -95v-11h-43v6c0 82 60 136 142 136c74 0 137 -54 137 -127c0 -43 -23 -79 -70 -118l-151 -123h220v-39z" />
    <glyph glyph-name="onequarter" unicode="&#xbc;" horiz-adv-x="879" 
d="M208 313h-47v364h-78v34h125v-398zM248 -14h-59l442 739h58zM803 0h-43v77h-210v34l203 287h50v-287h49v-34h-49v-77zM761 111l2 241l-167 -241h165z" />
    <glyph glyph-name="onesuperior" unicode="&#xb9;" horiz-adv-x="373" 
d="M218 284h-49v390h-82v37h131v-427z" />
    <glyph glyph-name="plusminus" unicode="&#xb1;" horiz-adv-x="833" 
d="M441 571v-170h268v-48h-268v-170h-48v170h-269v48h269v170h48zM709 73v-48h-585v48h585z" />
    <glyph glyph-name="thorn" unicode="&#xfe;" horiz-adv-x="630" 
d="M123 85v-117v-142h-70v885h70l-2 -262c39 60 117 100 200 100c165 0 281 -127 281 -276c0 -164 -115 -287 -276 -287c-87 0 -159 35 -203 99zM322 485c-106 0 -201 -97 -201 -216c0 -122 98 -219 203 -219c108 0 206 89 206 213c0 132 -98 222 -208 222z" />
    <glyph glyph-name="threequarters" unicode="&#xbe;" horiz-adv-x="879" 
d="M78 434v-3c0 -54 43 -92 96 -92c57 0 101 37 101 92c0 61 -41 93 -119 93h-21v33c7 -1 14 -1 20 -1c59 0 89 22 89 65c0 38 -30 64 -67 64c-43 0 -71 -24 -71 -67h-41c4 62 48 101 114 101c64 0 110 -47 110 -98c0 -32 -13 -54 -43 -74c49 -23 73 -60 73 -112
c0 -70 -58 -130 -143 -130c-87 0 -141 48 -143 129h45zM248 -14h-59l442 739h58zM803 0h-43v77h-210v34l203 287h50v-287h49v-34h-49v-77zM761 111l2 241l-167 -241h165z" />
    <glyph glyph-name="threesuperior" unicode="&#xb3;" horiz-adv-x="373" 
d="M82 414v-4c0 -58 45 -98 100 -98c60 0 106 40 106 99c0 64 -42 99 -124 99h-22v35c7 -1 14 -1 20 -1c62 0 93 24 93 70c0 41 -31 68 -70 68c-45 0 -73 -25 -74 -72h-43c4 68 50 109 119 109c67 0 116 -50 116 -105c0 -34 -14 -58 -46 -79c52 -25 78 -65 78 -120
c0 -76 -61 -139 -150 -139c-91 0 -149 51 -150 138h47z" />
    <glyph glyph-name="twosuperior" unicode="&#xb2;" horiz-adv-x="373" 
d="M334 284h-291v41l166 144c50 42 81 74 81 118c0 51 -40 94 -102 94c-60 0 -100 -39 -100 -101v-12h-45v6c0 88 63 146 149 146c77 0 143 -57 143 -136c0 -46 -24 -85 -73 -126l-158 -133h230v-41z" />
    <glyph glyph-name="yacute" unicode="&#xfd;" horiz-adv-x="461" 
d="M-16 537h79l166 -436l174 436h80l-290 -711h-74l72 175zM215 609h-45l102 171h74z" />
  </font>
</defs>
</svg>
