<?xml version="1.0" standalone="no"?>
<!DOCTYPE svg PUBLIC "-//W3C//DTD SVG 1.1//EN" "http://www.w3.org/Graphics/SVG/1.1/DTD/svg11.dtd" >
<svg xmlns="http://www.w3.org/2000/svg" width="100%" height="100%">
<metadata>
Created by FontXChange 20110222 at Thu Nov 19 10:49:04 2015
 By Jason Coe
Copyright 1990 as an unpublished work by Bitstream Inc.  All rights reserved.  Confidential.
</metadata>
<defs>
<font id="AvantGardeITCbyBT-Demi" horiz-adv-x="500" >
  <font-face 
    font-family="ITC Avant Garde Gothic"
    font-weight="600"
    font-stretch="normal"
    units-per-em="1000"
    panose-1="2 0 7 3 0 0 0 0 0 0"
    ascent="800"
    descent="-200"
    x-height="537"
    cap-height="711"
    bbox="-167 -236 1254 956"
    underline-thickness="95"
    underline-position="-95"
    stemh="123"
    stemv="121"
    unicode-range="U+0020-FB02"
  />
    <missing-glyph />
    <glyph glyph-name="space" unicode=" " horiz-adv-x="291" 
 />
    <glyph glyph-name="exclam" unicode="!" horiz-adv-x="306" 
d="M215 0h-125v134h125v-134zM215 194h-125v517h125v-517z" />
    <glyph glyph-name="quotedbl" unicode="&#x22;" horiz-adv-x="314" 
d="M42 701h80v-272h-80v272zM193 701h80v-272h-80v272z" />
    <glyph glyph-name="numbersign" unicode="#" horiz-adv-x="769" 
d="M359 713h93l-75 -213h122l76 213h93l-75 -213h142l-29 -84h-143l-44 -123h151l-30 -84h-150l-76 -212h-93l76 212h-123l-77 -212h-93l76 212h-146l30 84h145l44 123h-154l30 84h154zM346 416l-44 -124h125l44 124h-125z" />
    <glyph glyph-name="dollar" unicode="$" horiz-adv-x="581" 
d="M203 221c2 -62 32 -93 87 -93c50 0 83 35 83 89c0 64 -40 78 -112 100c-113 34 -168 89 -168 188c0 96 52 167 147 197v107h116v-108c85 -22 133 -86 138 -183h-122c-2 41 -33 69 -76 69c-50 0 -82 -32 -82 -78c0 -18 5 -30 17 -40c32 -26 82 -30 138 -49
c90 -31 141 -98 141 -188c0 -112 -54 -188 -154 -220v-128h-116v122c-107 25 -167 103 -168 215h131z" />
    <glyph glyph-name="percent" unicode="%" horiz-adv-x="877" 
d="M482 161c0 47 18 91 51 124s77 51 124 51s91 -18 124 -51s51 -77 51 -124c0 -48 -18 -91 -51 -124s-77 -51 -124 -51s-91 18 -124 51s-51 77 -51 124zM575 161c0 -46 36 -82 82 -82s82 36 82 82s-36 82 -82 82s-82 -36 -82 -82zM590 725h79l-380 -740h-79zM137 550
c0 -46 36 -81 82 -81s82 35 82 81s-36 82 -82 82s-82 -36 -82 -82zM44 550c0 47 19 91 52 124s76 51 123 51s91 -18 124 -51s52 -77 52 -124c0 -48 -19 -91 -52 -124s-77 -51 -124 -51s-90 18 -123 51s-52 77 -52 124z" />
    <glyph glyph-name="ampersand" unicode="&#x26;" horiz-adv-x="651" 
d="M242 469c42 22 63 48 63 81c0 32 -26 60 -58 60c-33 0 -58 -23 -58 -62c0 -30 18 -53 53 -79zM344 200l-118 112c-53 -31 -79 -66 -79 -112c0 -53 38 -91 86 -91c46 0 84 31 111 91zM436 119c-46 -87 -116 -134 -201 -134c-119 0 -211 95 -211 214c0 81 41 144 126 204
c-50 49 -76 89 -76 144c0 99 77 178 178 178c88 0 164 -78 164 -168c0 -62 -36 -117 -107 -162l101 -94l66 172h126l-101 -249l162 -141l-84 -94z" />
    <glyph glyph-name="quoteright" unicode="&#x2019;" horiz-adv-x="238" 
d="M186 711v-128c0 -91 -37 -133 -125 -135v72c31 4 42 17 42 48v8h-42v135h125z" />
    <glyph glyph-name="parenleft" unicode="(" horiz-adv-x="296" 
d="M257 725v-135c-69 -45 -81 -103 -81 -195v-281c0 -92 12 -150 81 -195v-135c-140 49 -211 150 -211 298v345c0 148 71 249 211 298z" />
    <glyph glyph-name="parenright" unicode=")" horiz-adv-x="296" 
d="M39 725c140 -49 211 -150 211 -298v-345c0 -148 -71 -249 -211 -298v135c69 45 81 103 81 195v281c0 92 -12 150 -81 195v135z" />
    <glyph glyph-name="asterisk" unicode="*" 
d="M249 443l-87 -123l-71 49l95 121l-140 39l26 83l135 -45v144h84v-144l133 45l30 -83l-141 -38l93 -122l-70 -51z" />
    <glyph glyph-name="plus" unicode="+" horiz-adv-x="833" 
d="M375 596h83v-257h251v-81h-251v-258h-83v258h-251v81h251v257z" />
    <glyph glyph-name="comma" unicode="," horiz-adv-x="291" 
d="M208 134v-127c0 -91 -37 -133 -125 -135v72c31 4 41 18 41 51v5h-41v134h125z" />
    <glyph glyph-name="hyphen" unicode="-" horiz-adv-x="340" 
d="M296 326v-115h-252v115h252z" />
    <glyph glyph-name="period" unicode="." horiz-adv-x="291" 
d="M208 0h-125v134h125v-134z" />
    <glyph glyph-name="slash" unicode="/" horiz-adv-x="278" 
d="M46 -93h-68l233 804h67z" />
    <glyph glyph-name="zero" unicode="0" horiz-adv-x="581" 
d="M42 462c0 65 4 117 44 168c49 64 116 95 205 95c84 0 155 -34 206 -97c33 -41 42 -95 42 -168v-211c0 -65 -4 -118 -44 -169c-49 -64 -116 -94 -205 -94c-84 0 -155 34 -206 97c-33 41 -42 94 -42 167v212zM181 463v-214c0 -91 34 -136 109 -136c77 0 110 47 110 140v206
v14c0 29 -1 53 -12 72c-20 34 -55 53 -97 53c-73 0 -110 -45 -110 -135z" />
    <glyph glyph-name="one" unicode="1" horiz-adv-x="581" 
d="M380 0h-134v606h-124v105h258v-711z" />
    <glyph glyph-name="two" unicode="2" horiz-adv-x="581" 
d="M522 0h-469v133l258 241c49 46 74 91 74 131c0 52 -37 92 -92 92c-57 0 -90 -38 -90 -106v-12h-140v2c0 148 95 243 233 243c132 0 229 -100 229 -220c0 -69 -35 -132 -106 -196l-199 -180h302v-128z" />
    <glyph glyph-name="three" unicode="3" horiz-adv-x="581" 
d="M56 228h133v-5c0 -67 40 -110 97 -110c63 0 108 48 108 122c0 73 -44 111 -132 111c-6 0 -13 -1 -20 -1v118c7 0 13 -1 19 -1c59 0 86 22 86 73c0 42 -23 66 -61 66c-34 0 -54 -24 -56 -68h-123c0 117 76 192 187 192c102 0 179 -83 179 -177c0 -58 -22 -100 -70 -133
c81 -36 121 -99 121 -192c0 -61 -19 -112 -60 -159c-49 -56 -98 -78 -174 -78c-146 0 -234 89 -234 239v3z" />
    <glyph glyph-name="four" unicode="4" horiz-adv-x="581" 
d="M477 0h-122v108h-312v118l307 485h127v-485h60v-118h-60v-108zM355 226v297l-189 -297h189z" />
    <glyph glyph-name="five" unicode="5" horiz-adv-x="581" 
d="M469 711v-123h-244l-22 -122c30 17 62 25 98 25c131 0 236 -112 236 -250c0 -62 -22 -120 -64 -168c-50 -58 -115 -88 -190 -88c-132 0 -237 94 -249 236h134c8 -65 56 -107 114 -107c65 0 114 53 114 128c0 73 -47 123 -119 123c-43 0 -74 -17 -93 -51l-118 27l68 370
h335z" />
    <glyph glyph-name="six" unicode="6" horiz-adv-x="581" 
d="M295 711h145l-161 -243c19 4 36 7 54 7c116 0 209 -104 209 -239c0 -55 -23 -117 -61 -162c-52 -61 -111 -87 -191 -87c-68 0 -130 25 -177 72c-48 48 -73 109 -73 169c0 89 42 161 100 248zM174 241c0 -73 54 -127 116 -127c66 0 116 49 116 123c0 73 -49 123 -114 123
c-67 0 -118 -56 -118 -119z" />
    <glyph glyph-name="seven" unicode="7" horiz-adv-x="581" 
d="M253 0h-142l265 586h-278v125h407v-132z" />
    <glyph glyph-name="eight" unicode="8" horiz-adv-x="581" 
d="M166 397c-51 31 -80 82 -80 140c0 100 87 188 202 188c121 0 207 -85 207 -189c0 -60 -28 -107 -83 -139c78 -40 116 -99 116 -180c0 -133 -96 -231 -241 -231c-134 0 -234 100 -234 231c0 77 36 134 113 180zM192 211c0 -60 44 -102 96 -102c59 0 100 44 100 103
c0 63 -39 103 -101 103c-56 0 -95 -39 -95 -104zM224 532c0 -40 26 -69 66 -69c41 0 67 26 67 71c0 43 -28 71 -66 71s-67 -29 -67 -73z" />
    <glyph glyph-name="nine" unicode="9" horiz-adv-x="581" 
d="M287 0h-145l161 242c-19 -4 -36 -7 -54 -7c-116 0 -209 105 -209 240c0 55 23 116 61 161c52 61 111 88 191 88c68 0 130 -25 177 -72c48 -48 73 -110 73 -170c0 -89 -42 -161 -100 -248zM408 469c0 73 -54 128 -116 128c-66 0 -116 -50 -116 -124
c0 -73 49 -123 114 -123c67 0 118 56 118 119z" />
    <glyph glyph-name="colon" unicode=":" horiz-adv-x="306" 
d="M215 0h-125v134h125v-134zM215 380h-125v134h125v-134z" />
    <glyph glyph-name="semicolon" unicode=";" horiz-adv-x="306" 
d="M215 380h-125v134h125v-134zM215 134v-127c0 -91 -37 -133 -125 -135v72c32 4 42 18 42 51v5h-42v134h125z" />
    <glyph glyph-name="less" unicode="&#x3c;" horiz-adv-x="833" 
d="M704 574v-90l-456 -186l456 -186v-89l-575 236v78z" />
    <glyph glyph-name="equal" unicode="=" horiz-adv-x="833" 
d="M124 440h585v-82h-585v82zM124 238h585v-81h-585v81z" />
    <glyph glyph-name="greater" unicode="&#x3e;" horiz-adv-x="833" 
d="M129 574l575 -237v-78l-575 -236v89l456 186l-456 186v90z" />
    <glyph glyph-name="question" unicode="?" horiz-adv-x="509" 
d="M189 0v134h125v-134h-125zM189 194c0 69 24 118 66 171c16 21 44 42 68 74c12 16 17 34 17 59c0 64 -35 101 -93 101c-50 0 -85 -39 -86 -105h-131c1 139 97 231 225 231c130 0 226 -92 226 -219c0 -94 -48 -125 -94 -168c-45 -42 -71 -80 -73 -144h-125z" />
    <glyph glyph-name="at" unicode="@" horiz-adv-x="1000" 
d="M602 345c-9 55 -41 86 -90 86c-82 0 -150 -95 -150 -214c0 -65 31 -100 85 -100c57 0 111 46 128 117zM573 138c-36 -57 -82 -82 -148 -82c-99 0 -153 58 -153 164c0 156 106 272 230 272c58 0 96 -22 121 -69l27 52h75l-72 -286c-2 -10 -4 -18 -4 -24
c0 -25 19 -41 47 -41c31 0 70 19 104 56c46 49 72 117 72 192c0 162 -130 278 -330 278c-89 0 -166 -20 -230 -61c-118 -74 -184 -194 -184 -335c0 -203 148 -335 375 -335c109 0 214 33 300 93l33 -48c-98 -74 -209 -111 -329 -111c-126 0 -230 32 -309 93
c-101 77 -150 179 -150 309c0 108 35 206 100 286c95 116 231 178 397 178c111 0 211 -32 278 -84c87 -67 129 -154 129 -262c0 -106 -44 -200 -122 -263c-45 -36 -99 -55 -155 -55c-69 0 -102 26 -102 81v2z" />
    <glyph glyph-name="A" unicode="A" horiz-adv-x="602" 
d="M162 149l-55 -149h-144l276 711h120l272 -711h-149l-56 149h-264zM380 281l-84 229l-86 -229h170z" />
    <glyph glyph-name="B" unicode="B" horiz-adv-x="514" 
d="M62 0v711h106h47c47 0 87 -2 122 -16c78 -32 121 -94 121 -174c0 -66 -25 -114 -73 -138c70 -21 113 -84 113 -166c0 -68 -27 -129 -70 -166c-53 -45 -111 -51 -188 -51h-178zM196 125h42c82 0 123 26 123 87c0 64 -42 98 -123 98h-42v-185zM196 425h16
c76 0 114 27 114 83c0 54 -36 78 -110 78h-20v-161z" />
    <glyph glyph-name="C" unicode="C" horiz-adv-x="752" 
d="M727 500h-170c-39 53 -94 82 -167 82c-57 0 -110 -22 -150 -63c-43 -44 -66 -103 -66 -161c0 -133 98 -230 216 -230c70 0 127 27 162 76h170c-66 -145 -177 -218 -331 -218c-106 0 -197 41 -269 122c-60 67 -92 154 -92 252c0 99 38 189 111 262c68 67 153 103 251 103
c156 0 265 -74 335 -225z" />
    <glyph glyph-name="D" unicode="D" horiz-adv-x="685" 
d="M301 0h-242v711h238c112 0 189 -16 260 -85c67 -65 102 -158 102 -274c0 -129 -49 -233 -141 -299c-62 -45 -129 -53 -217 -53zM292 122c153 0 225 72 225 234c0 148 -84 234 -227 234h-91v-468h93z" />
    <glyph glyph-name="E" unicode="E" 
d="M443 0h-384v711h384v-125h-246v-162h246v-123h-246v-176h246v-125z" />
    <glyph glyph-name="F" unicode="F" horiz-adv-x="481" 
d="M59 0v711h384v-125h-246v-162h246v-123h-246v-301h-138z" />
    <glyph glyph-name="G" unicode="G" horiz-adv-x="787" 
d="M759 378c0 -8 1 -16 1 -24c0 -61 -11 -113 -34 -159c-67 -134 -187 -209 -333 -209c-107 0 -199 41 -272 122c-60 67 -93 154 -93 252c0 99 39 189 113 262c70 69 155 103 261 103c152 0 266 -76 327 -220h-169c-41 51 -97 77 -166 77c-122 0 -218 -101 -218 -226
c0 -128 97 -227 222 -227c85 0 162 49 196 130h-279v119h444z" />
    <glyph glyph-name="H" unicode="H" horiz-adv-x="625" 
d="M198 289v-289h-139v711h139v-288h229v288h139v-711h-139v289h-229z" />
    <glyph glyph-name="I" unicode="I" horiz-adv-x="259" 
d="M60 0v711h139v-711h-139z" />
    <glyph glyph-name="J" unicode="J" horiz-adv-x="451" 
d="M393 243c0 -71 -3 -126 -32 -172c-35 -55 -94 -85 -167 -85c-125 0 -194 71 -194 206h138v-2c0 -41 21 -64 55 -64c48 0 61 42 61 128v457h139v-468z" />
    <glyph glyph-name="K" unicode="K" horiz-adv-x="556" 
d="M198 0h-139v711h139v-711zM200 353l215 358h155l-228 -353l228 -358h-155z" />
    <glyph glyph-name="L" unicode="L" horiz-adv-x="440" 
d="M420 0h-361v711h138v-586h223v-125z" />
    <glyph glyph-name="M" unicode="M" horiz-adv-x="847" 
d="M197 0h-138v711h184l181 -517l180 517h184v-711h-137l5 516l-180 -516h-105l-180 516z" />
    <glyph glyph-name="N" unicode="N" horiz-adv-x="681" 
d="M196 0h-137v711h132l294 -454v454h136v-711h-129l-296 468v-468z" />
    <glyph glyph-name="O" unicode="O" horiz-adv-x="787" 
d="M28 357c0 79 21 148 62 208c70 102 180 160 306 160c95 0 185 -38 254 -106c71 -71 109 -162 109 -259c0 -102 -36 -193 -103 -262c-69 -72 -163 -112 -262 -112c-105 0 -195 37 -265 112c-66 70 -101 159 -101 259zM174 362c0 -61 20 -114 60 -158
c44 -48 102 -74 160 -74c121 0 220 96 220 232c0 121 -98 219 -217 219c-125 0 -223 -98 -223 -219z" />
    <glyph glyph-name="P" unicode="P" horiz-adv-x="514" 
d="M198 0h-139v711h177c77 0 132 -6 169 -31c58 -39 94 -108 94 -183c0 -132 -92 -224 -249 -224h-52v-273zM198 393h37c79 0 120 36 120 97c0 65 -40 96 -121 96h-36v-193z" />
    <glyph glyph-name="Q" unicode="Q" horiz-adv-x="787" 
d="M582 39c-54 -35 -119 -54 -192 -54c-81 0 -158 28 -224 80c-89 71 -138 174 -138 295c0 99 40 190 113 262c68 67 154 103 253 103c101 0 188 -35 258 -104c74 -72 111 -162 111 -269c0 -93 -29 -170 -87 -232c25 -12 52 -18 83 -18h14v-113c-6 0 -12 -1 -18 -1
c-58 0 -116 18 -173 51zM214 227c44 -62 109 -96 183 -96c28 0 57 6 87 18c-82 54 -157 81 -228 81c-14 0 -28 -1 -42 -3zM564 217c34 36 51 82 51 139c0 129 -97 229 -222 229c-124 0 -220 -106 -220 -227c0 -12 2 -24 6 -37c31 10 61 15 91 15c106 0 199 -39 294 -119z
" />
    <glyph glyph-name="R" unicode="R" horiz-adv-x="569" 
d="M198 0h-139v711h169c79 0 140 -2 187 -24c81 -38 124 -107 124 -198c0 -110 -64 -192 -169 -213l178 -276h-166l-184 330v-330zM198 365h31c113 0 172 42 172 120c0 77 -50 110 -151 110h-52v-230z" />
    <glyph glyph-name="S" unicode="S" horiz-adv-x="479" 
d="M16 221h127v-10c0 -61 35 -99 86 -99c56 0 91 36 91 93c0 76 -42 81 -119 105c-109 34 -163 96 -163 194c0 134 81 221 203 221c115 0 187 -75 195 -205h-126v6c0 46 -30 76 -74 76c-45 0 -74 -30 -74 -80c0 -20 5 -36 17 -49c28 -31 75 -35 131 -54
c97 -33 143 -93 143 -190c0 -147 -89 -243 -223 -243c-126 0 -212 92 -214 235z" />
    <glyph glyph-name="T" unicode="T" horiz-adv-x="419" 
d="M413 711v-125h-134v-586h-139v586h-134v125h407z" />
    <glyph glyph-name="U" unicode="U" horiz-adv-x="576" 
d="M59 711h139v-410c0 -116 18 -171 90 -171s90 55 90 171v410h139v-451c0 -74 -3 -131 -36 -179c-45 -66 -106 -95 -193 -95s-148 29 -193 95c-36 53 -36 110 -36 179v451z" />
    <glyph glyph-name="V" unicode="V" horiz-adv-x="567" 
d="M333 0h-99l-255 711h149l155 -474l156 474h148z" />
    <glyph glyph-name="W" unicode="W" horiz-adv-x="843" 
d="M-15 711h142l117 -461l129 461h96l129 -461l117 461h142l-206 -711h-111l-119 444l-120 -444h-110z" />
    <glyph glyph-name="X" unicode="X" horiz-adv-x="586" 
d="M293 250l-144 -250h-157l228 359l-222 352h157l138 -247l137 247h157l-221 -352l227 -359h-157z" />
    <glyph glyph-name="Y" unicode="Y" horiz-adv-x="493" 
d="M314 256v-256h-139v256l-204 455h153l123 -306l122 306h152z" />
    <glyph glyph-name="Z" unicode="Z" horiz-adv-x="475" 
d="M460 0h-446v123l281 456h-261v132h419v-114l-286 -465h293v-132z" />
    <glyph glyph-name="bracketleft" unicode="[" horiz-adv-x="296" 
d="M181 600v-689h92v-111h-217v911h217v-111h-92z" />
    <glyph glyph-name="backslash" unicode="\" horiz-adv-x="278" 
d="M232 -93l-232 804h67l232 -804h-67z" />
    <glyph glyph-name="bracketright" unicode="]" horiz-adv-x="296" 
d="M116 600h-93v111h218v-911h-218v111h93v689z" />
    <glyph glyph-name="asciicircum" unicode="^" horiz-adv-x="1000" 
d="M447 713h106l242 -274h-101l-194 194l-195 -194h-101z" />
    <glyph glyph-name="underscore" unicode="_" 
d="M0 -152h500v-84h-500v84z" />
    <glyph glyph-name="quoteleft" unicode="&#x2018;" horiz-adv-x="238" 
d="M61 462v128c0 91 37 133 125 135v-72c-30 -4 -41 -18 -41 -48v-8h41v-135h-125z" />
    <glyph glyph-name="a" unicode="a" horiz-adv-x="644" 
d="M469 0v66c-30 -54 -84 -78 -167 -78c-160 0 -279 123 -279 283c0 75 27 145 77 197c54 57 118 83 199 83c78 0 134 -26 169 -79v65h122v-537h-121zM151 273c0 -93 71 -159 155 -159c78 0 149 70 149 153c0 90 -72 160 -151 160c-83 0 -153 -67 -153 -154z" />
    <glyph glyph-name="b" unicode="b" horiz-adv-x="644" 
d="M170 494c48 40 101 56 168 56c70 0 135 -24 185 -71c59 -54 91 -130 91 -209c0 -86 -36 -165 -101 -221c-47 -41 -108 -63 -176 -63c-63 0 -117 18 -167 58v-44h-123v711h123v-217zM175 266c0 -89 68 -156 148 -156c95 0 162 69 162 158c0 86 -69 159 -156 159
s-154 -69 -154 -161z" />
    <glyph glyph-name="c" unicode="c" horiz-adv-x="606" 
d="M442 346c-30 56 -76 84 -140 84c-84 0 -149 -67 -149 -161c0 -91 65 -159 153 -159c68 0 113 29 135 87h133c-32 -132 -132 -211 -267 -211c-80 0 -148 29 -202 84c-52 53 -81 127 -81 198c0 75 26 142 77 195c56 59 127 90 208 90c130 0 235 -79 266 -207h-133z" />
    <glyph glyph-name="d" unicode="d" horiz-adv-x="644" 
d="M473 494v217h123v-711h-123v44c-50 -40 -104 -58 -167 -58c-68 0 -129 22 -176 63c-65 56 -101 135 -101 221c0 79 33 155 92 209c50 47 115 71 185 71c67 0 119 -16 167 -56zM468 266c0 92 -66 161 -153 161s-156 -73 -156 -159c0 -89 67 -158 162 -158
c80 0 147 67 147 156z" />
    <glyph glyph-name="e" unicode="e" horiz-adv-x="606" 
d="M153 229c8 -77 64 -125 149 -125c55 0 102 24 128 67h135c-46 -118 -141 -185 -260 -185c-79 0 -147 28 -201 84c-51 53 -80 126 -80 198c0 75 26 142 76 195c55 58 126 90 200 90c93 0 177 -44 233 -121c36 -48 51 -105 51 -176c0 -9 -1 -18 -1 -27h-430zM449 328
c-21 72 -73 110 -149 110c-66 0 -124 -43 -143 -110h292z" />
    <glyph glyph-name="f" unicode="f" horiz-adv-x="296" 
d="M291 537v-111h-90v-426h-121v426h-64v111h60v15c0 113 62 168 189 168c8 0 17 -1 26 -1v-112h-9c-55 0 -79 -16 -79 -60v-10h88z" />
    <glyph glyph-name="g" unicode="g" horiz-adv-x="644" 
d="M147 278c0 -96 73 -165 163 -165c83 0 159 73 159 159c0 94 -75 166 -160 166c-88 0 -162 -69 -162 -160zM481 537h112v-448c0 -190 -109 -299 -279 -299c-130 0 -218 62 -259 181h121c26 -48 77 -77 136 -77c97 0 168 68 168 177v5c-49 -51 -112 -76 -184 -76
c-71 0 -137 25 -187 72c-54 51 -86 126 -86 198c0 162 114 281 273 281c73 0 133 -26 185 -78v64z" />
    <glyph glyph-name="h" unicode="h" horiz-adv-x="583" 
d="M178 711v-235c37 49 83 72 144 72c133 0 208 -84 208 -240v-308h-125v237c0 127 -18 189 -111 189c-91 0 -117 -66 -117 -196v-230h-121v711h122z" />
    <glyph glyph-name="i" unicode="i" horiz-adv-x="234" 
d="M56 0v537h122v-537h-122zM178 592h-122v119h122v-119z" />
    <glyph glyph-name="j" unicode="j" horiz-adv-x="245" 
d="M179 592h-121v119h121v-119zM179 537v-518c0 -138 -23 -193 -154 -193c-11 0 -21 0 -33 1v121h4c59 0 62 24 62 96v493h121z" />
    <glyph glyph-name="k" unicode="k" horiz-adv-x="495" 
d="M176 0h-121v711h121v-423l174 249h141l-186 -255l223 -282h-157l-195 273v-273z" />
    <glyph glyph-name="l" unicode="l" horiz-adv-x="234" 
d="M56 0v711h122v-711h-122z" />
    <glyph glyph-name="m" unicode="m" horiz-adv-x="928" 
d="M178 537v-61c37 49 83 72 144 72c86 0 146 -30 190 -95c42 63 94 95 159 95c130 0 204 -84 204 -240v-308h-123v238c0 127 -18 188 -108 188s-115 -66 -115 -196v-230h-124v238c0 127 -19 188 -111 188c-91 0 -117 -66 -117 -196v-230h-121v537h122z" />
    <glyph glyph-name="n" unicode="n" horiz-adv-x="583" 
d="M178 537v-61c37 49 83 72 144 72c78 0 135 -30 173 -88c32 -50 35 -106 35 -176v-284h-125v238c0 127 -20 188 -111 188s-117 -66 -117 -196v-230h-121v537h122z" />
    <glyph glyph-name="o" unicode="o" horiz-adv-x="609" 
d="M23 271c0 75 28 145 81 198c54 54 124 84 197 84c78 0 143 -26 197 -77c56 -54 88 -128 88 -202c0 -81 -26 -149 -80 -204c-54 -56 -123 -84 -203 -84s-146 28 -201 86c-51 55 -79 123 -79 199zM152 272c0 -101 60 -162 152 -162c91 0 152 62 152 165
c0 92 -66 155 -152 155c-90 0 -152 -65 -152 -158z" />
    <glyph glyph-name="p" unicode="p" horiz-adv-x="644" 
d="M170 43v-217h-123v711h123v-45c50 40 104 59 167 59c68 0 129 -22 176 -63c65 -56 101 -135 101 -221c0 -79 -32 -155 -91 -209c-50 -47 -115 -72 -185 -72c-67 0 -120 17 -168 57zM175 271c0 -92 67 -161 154 -161s156 73 156 159c0 89 -67 158 -162 158
c-80 0 -148 -67 -148 -156z" />
    <glyph glyph-name="q" unicode="q" horiz-adv-x="644" 
d="M473 43c-48 -40 -100 -57 -167 -57c-70 0 -135 25 -185 72c-59 54 -92 130 -92 209c0 86 36 165 101 221c47 41 108 63 176 63c63 0 117 -19 167 -59v45h123v-711h-123v217zM468 271c0 89 -67 156 -147 156c-95 0 -162 -69 -162 -158c0 -86 69 -159 156 -159
s153 69 153 161z" />
    <glyph glyph-name="r" unicode="r" horiz-adv-x="301" 
d="M306 428c-107 -8 -130 -54 -130 -154v-274h-125v537h117v-62c37 47 80 70 138 70v-117z" />
    <glyph glyph-name="s" unicode="s" horiz-adv-x="407" 
d="M137 178v-7c0 -49 28 -80 65 -80c36 0 62 24 62 59c0 34 -17 51 -58 70c-47 22 -84 32 -101 46c-39 32 -58 71 -58 123c0 91 73 162 163 162c95 0 154 -58 159 -158h-112v3c0 35 -19 55 -51 55c-28 0 -49 -22 -49 -50c0 -42 36 -49 102 -78c83 -37 120 -74 120 -164
c0 -100 -76 -173 -179 -173c-102 0 -171 72 -177 192h114z" />
    <glyph glyph-name="t" unicode="t" horiz-adv-x="306" 
d="M94 0v426h-82v111h82v174h125v-174h83v-111h-83v-426h-125z" />
    <glyph glyph-name="u" unicode="u" horiz-adv-x="583" 
d="M405 0v58c-37 -49 -83 -72 -144 -72c-133 0 -209 84 -209 240v311h126v-241c0 -127 19 -189 111 -189c91 0 117 67 117 197v233h123v-537h-124z" />
    <glyph glyph-name="v" unicode="v" horiz-adv-x="486" 
d="M289 0h-98l-204 537h133l125 -357l129 357h130z" />
    <glyph glyph-name="w" unicode="w" horiz-adv-x="704" 
d="M351 325l-91 -325h-82l-186 537h135l87 -310l95 310h92l90 -310l87 310h135l-187 -537h-82z" />
    <glyph glyph-name="x" unicode="x" horiz-adv-x="456" 
d="M224 171l-111 -171h-137l182 279l-161 258h140l93 -153l95 153h146l-171 -255l173 -282h-142z" />
    <glyph glyph-name="y" unicode="y" horiz-adv-x="512" 
d="M-11 537h132l131 -375l144 375h131l-290 -711h-129l75 189z" />
    <glyph glyph-name="z" unicode="z" horiz-adv-x="421" 
d="M17 0v115l240 306h-220v116h354v-134l-223 -283h238v-120h-389z" />
    <glyph glyph-name="braceleft" unicode="{" 
d="M427 721v-87c-8 0 -16 1 -23 1c-77 0 -91 -26 -91 -105v-118c0 -91 -17 -133 -99 -153c82 -20 99 -63 99 -153v-117c0 -79 14 -106 92 -106c7 0 14 1 22 1v-86h-31c-58 0 -101 5 -133 24c-44 26 -50 72 -50 146v121c0 92 -29 128 -113 128c-7 0 -14 -1 -21 -1v87
c7 0 14 -1 21 -1c83 0 113 35 113 127v121c0 74 5 120 50 147c34 20 79 24 142 24h22z" />
    <glyph glyph-name="bar" unicode="|" 
d="M207 764h87v-1000h-87v1000z" />
    <glyph glyph-name="braceright" unicode="}" 
d="M74 721h22c62 0 107 -4 141 -24c45 -27 50 -74 50 -147v-121c0 -92 29 -127 113 -127c6 0 14 1 21 1v-87c-7 0 -14 1 -21 1c-84 0 -113 -36 -113 -128v-121c0 -73 -5 -119 -50 -146c-33 -20 -79 -24 -141 -24h-22v86c8 0 15 -1 22 -1c78 0 91 27 91 106v117
c0 90 18 133 100 153c-83 20 -100 63 -100 153v118c0 79 -14 105 -90 105c-7 0 -15 -1 -23 -1v87z" />
    <glyph glyph-name="asciitilde" unicode="~" horiz-adv-x="833" 
d="M747 383v-90c-65 -45 -126 -69 -186 -69c-29 0 -61 6 -93 17c-69 23 -129 48 -193 48c-58 0 -117 -27 -188 -77v91c69 47 131 70 189 70c57 0 102 -15 143 -29c49 -17 94 -36 143 -36c58 0 117 26 185 75z" />
    <glyph glyph-name="exclamdown" unicode="&#xa1;" horiz-adv-x="306" 
d="M90 711h125v-135h-125v135zM90 516h125v-516h-125v516z" />
    <glyph glyph-name="cent" unicode="&#xa2;" horiz-adv-x="581" 
d="M418 428c-23 60 -66 91 -125 91c-72 0 -133 -69 -133 -167c0 -97 60 -166 137 -166c54 0 98 33 120 94h129c-23 -107 -89 -178 -196 -208v-112h-109v113c-126 35 -207 148 -207 280c0 135 78 242 207 278v106h109v-104c106 -23 174 -94 197 -205h-129z" />
    <glyph glyph-name="sterling" unicode="&#xa3;" horiz-adv-x="581" 
d="M428 314h-148c23 -41 38 -76 38 -120c0 -29 -4 -53 -18 -77c9 -2 16 -3 23 -3c60 0 105 45 105 116c0 13 -1 28 -5 43h124c4 -21 5 -38 5 -53c0 -138 -84 -229 -235 -229c-25 0 -48 2 -69 3l-204 6v118h114c19 14 29 39 29 76c0 42 -18 78 -51 120h-106v114h51
c-8 23 -12 44 -12 63c0 132 100 234 233 234c125 0 210 -69 231 -186h-143c-12 39 -45 62 -86 62c-56 0 -95 -41 -95 -90c0 -21 8 -48 24 -83h195v-114z" />
    <glyph glyph-name="fraction" unicode="&#x2044;" horiz-adv-x="167" 
d="M262 725h71l-427 -740h-73z" />
    <glyph glyph-name="yen" unicode="&#xa5;" horiz-adv-x="581" 
d="M563 707l-88 -192h72v-86h-112l-38 -82h150v-86h-191v-261h-134v261h-191v86h150l-37 82h-113v86h74l-87 192h144l129 -311l129 311h143z" />
    <glyph glyph-name="florin" unicode="&#x192;" horiz-adv-x="581" 
d="M321 -22c-12 -137 -66 -183 -211 -183c-15 0 -31 0 -48 1l11 125h22c83 0 96 23 102 100l26 302h-120l10 114h120l8 84c8 76 15 132 68 171c30 22 80 33 150 33c14 0 27 0 42 -1l-10 -124c-8 0 -16 1 -23 1c-79 0 -96 -27 -102 -103l-5 -61h128l-10 -114h-128z" />
    <glyph glyph-name="section" unicode="&#xa7;" 
d="M56 65h121c5 -51 30 -76 76 -76c44 0 70 23 70 58c0 46 -41 58 -100 88l-87 44c-73 37 -110 86 -110 146c0 57 28 101 84 130c-32 29 -48 63 -48 106c0 97 72 164 184 164c116 0 184 -62 185 -167h-115c-1 44 -26 67 -72 67c-41 0 -63 -19 -63 -50c0 -28 27 -47 89 -76
l82 -39c83 -39 122 -86 122 -150c0 -59 -30 -104 -86 -128c38 -33 57 -73 57 -122c0 -96 -75 -173 -192 -173c-124 0 -192 61 -197 178zM322 225c26 15 39 32 39 54c0 31 -20 46 -58 65l-129 66c-25 -15 -39 -35 -39 -57c0 -31 27 -47 78 -73z" />
    <glyph glyph-name="currency" unicode="&#xa4;" horiz-adv-x="606" 
d="M82 698l99 -99c36 27 76 40 122 40s87 -13 123 -40l99 99l46 -45l-100 -100c26 -35 39 -76 39 -121s-13 -86 -39 -121l100 -100l-46 -45l-99 100c-37 -27 -76 -40 -122 -40s-87 13 -123 40l-99 -100l-45 45l99 100c-26 35 -39 76 -39 121s13 86 39 121l-99 100zM304 574
c-78 0 -142 -65 -142 -142c0 -78 63 -141 142 -141s142 63 142 141c0 77 -64 142 -142 142z" />
    <glyph glyph-name="quotesingle" unicode="'" horiz-adv-x="163" 
d="M42 701h80v-272h-80v272z" />
    <glyph glyph-name="quotedblleft" unicode="&#x201c;" horiz-adv-x="424" 
d="M61 462v128c0 91 37 133 125 135v-72c-30 -4 -41 -18 -41 -48v-8h41v-135h-125zM246 462v128c0 91 37 133 125 135v-72c-30 -4 -41 -18 -41 -48v-8h41v-135h-125z" />
    <glyph glyph-name="guillemotleft" unicode="&#xab;" horiz-adv-x="544" 
d="M280 425l-120 -157l120 -156h-97l-121 156l121 157h97zM470 425l-120 -157l120 -156h-97l-121 156l121 157h97z" />
    <glyph glyph-name="guilsinglleft" unicode="&#x2039;" horiz-adv-x="354" 
d="M280 425l-120 -157l120 -156h-97l-121 156l121 157h97z" />
    <glyph glyph-name="guilsinglright" unicode="&#x203a;" horiz-adv-x="354" 
d="M74 425h97l121 -157l-121 -156h-97l120 156z" />
    <glyph glyph-name="fi" unicode="&#xfb01;" horiz-adv-x="516" 
d="M291 537v-111h-90v-426h-121v426h-64v111h60v15c0 113 62 168 189 168c8 0 17 -1 26 -1v-112h-9c-55 0 -79 -16 -79 -60v-10h88zM461 592h-123v119h123v-119zM338 0v537h123v-537h-123z" />
    <glyph glyph-name="fl" unicode="&#xfb02;" horiz-adv-x="516" 
d="M291 537v-111h-90v-426h-121v426h-64v111h60v15c0 113 62 168 189 168c8 0 17 -1 26 -1v-112h-9c-55 0 -79 -16 -79 -60v-10h88zM461 0h-123v711h123v-711z" />
    <glyph glyph-name="endash" unicode="&#x2013;" 
d="M500 316v-95h-500v95h500z" />
    <glyph glyph-name="dagger" unicode="&#x2020;" 
d="M192 -114v523h-163v92h163v210h116v-210h163v-92h-163v-523h-116z" />
    <glyph glyph-name="daggerdbl" unicode="&#x2021;" 
d="M192 -113v183h-163v92h163v271h-163v93h163v185h116v-185h163v-93h-163v-271h163v-92h-163v-183h-116z" />
    <glyph glyph-name="periodcentered" unicode="&#xb7;" horiz-adv-x="291" 
d="M78 356c0 37 30 66 67 66s67 -29 67 -66s-30 -67 -67 -67s-67 29 -67 67z" />
    <glyph glyph-name="paragraph" unicode="&#xb6;" 
d="M473 722v-48h-57v-674h-63v674h-83v-674h-63v383c-112 4 -180 73 -180 169c0 100 73 170 191 170h255z" />
    <glyph glyph-name="bullet" unicode="&#x2022;" horiz-adv-x="590" 
d="M150 372c0 80 65 144 145 144c79 0 144 -64 144 -144c0 -79 -65 -145 -145 -145s-144 65 -144 145z" />
    <glyph glyph-name="quotesinglbase" unicode="&#x201a;" horiz-adv-x="238" 
d="M186 134v-127c0 -91 -37 -133 -125 -135v72c30 4 42 18 42 49v7h-42v134h125z" />
    <glyph glyph-name="quotedblbase" unicode="&#x201e;" horiz-adv-x="424" 
d="M352 134v-127c0 -91 -37 -133 -125 -135v72c30 4 41 18 41 48v8h-41v134h125zM167 134v-127c0 -91 -37 -133 -125 -135v72c30 4 41 18 41 48v8h-41v134h125z" />
    <glyph glyph-name="quotedblright" unicode="&#x201d;" horiz-adv-x="424" 
d="M371 711v-128c0 -91 -37 -133 -125 -135v72c30 4 42 18 42 49v7h-42v135h125zM186 711v-128c0 -91 -37 -133 -125 -135v72c30 4 42 18 42 49v7h-42v135h125z" />
    <glyph glyph-name="guillemotright" unicode="&#xbb;" horiz-adv-x="544" 
d="M74 425h97l121 -157l-121 -156h-97l120 156zM264 425h97l120 -157l-120 -156h-97l120 156z" />
    <glyph glyph-name="ellipsis" unicode="&#x2026;" horiz-adv-x="1000" 
d="M229 0h-125v134h125v-134zM562 0h-125v134h125v-134zM896 0h-125v134h125v-134z" />
    <glyph glyph-name="perthousand" unicode="&#x2030;" horiz-adv-x="1294" 
d="M590 725h79l-380 -740h-79zM997 161c0 -46 35 -82 81 -82s82 36 82 82s-36 82 -82 82s-81 -36 -81 -82zM903 161c0 47 19 91 52 124s76 51 123 51s91 -18 124 -51s52 -77 52 -124c0 -48 -19 -91 -52 -124s-77 -51 -124 -51s-90 18 -123 51s-52 77 -52 124zM44 550
c0 47 19 91 52 124s76 51 123 51s91 -18 124 -51s52 -77 52 -124c0 -48 -19 -91 -52 -124s-77 -51 -124 -51s-90 18 -123 51s-52 77 -52 124zM137 550c0 -46 36 -81 82 -81s82 35 82 81s-36 82 -82 82s-82 -36 -82 -82zM575 161c0 -46 36 -82 82 -82s82 36 82 82
s-36 82 -82 82s-82 -36 -82 -82zM482 161c0 47 18 91 51 124s77 51 124 51s91 -18 124 -51s51 -77 51 -124c0 -48 -18 -91 -51 -124s-77 -51 -124 -51s-91 18 -124 51s-51 77 -51 124z" />
    <glyph glyph-name="questiondown" unicode="&#xbf;" horiz-adv-x="509" 
d="M340 725v-135h-125v135h125zM340 530c0 -69 -24 -117 -66 -170c-16 -21 -44 -43 -68 -75c-12 -16 -17 -34 -17 -59c0 -64 35 -101 93 -101c50 0 85 40 86 106h131c-1 -139 -97 -231 -225 -231c-130 0 -226 91 -226 218c0 94 47 126 93 169c45 42 72 79 74 143h125z" />
    <glyph glyph-name="grave" unicode="`" 
d="M322 607h-64l-144 170h108z" />
    <glyph glyph-name="acute" unicode="&#xb4;" 
d="M178 607l100 170h108l-144 -170h-64z" />
    <glyph glyph-name="circumflex" unicode="&#x2c6;" 
d="M105 607l92 171h106l92 -171h-64l-81 103l-82 -103h-63z" />
    <glyph glyph-name="tilde" unicode="&#x2dc;" 
d="M397 750c-14 -71 -42 -110 -97 -110c-11 0 -23 1 -34 4l-41 12c-12 3 -23 6 -31 6c-22 0 -35 -11 -42 -33h-49c13 72 44 106 94 106c11 0 25 -2 41 -6l43 -12c8 -2 16 -4 25 -4c20 0 36 13 42 37h49z" />
    <glyph glyph-name="macron" unicode="&#xaf;" 
d="M115 656v72h270v-72h-270z" />
    <glyph glyph-name="breve" unicode="&#x2d8;" 
d="M104 764h59c3 -48 31 -69 87 -69s83 21 86 69h58c-6 -96 -52 -141 -144 -141s-139 45 -146 141z" />
    <glyph glyph-name="dotaccent" unicode="&#x2d9;" 
d="M198 628v117h105v-117h-105z" />
    <glyph glyph-name="dieresis" unicode="&#xa8;" 
d="M115 632v112h100v-112h-100zM285 632v112h100v-112h-100z" />
    <glyph glyph-name="ring" unicode="&#x2da;" 
d="M125 724c0 70 55 125 125 125s126 -55 126 -125c0 -71 -55 -127 -126 -127s-125 56 -125 127zM188 723c0 -35 28 -62 63 -62s62 27 62 62s-27 63 -62 63s-63 -28 -63 -63z" />
    <glyph glyph-name="cedilla" unicode="&#xb8;" 
d="M122 -212v58c54 -14 95 -21 124 -21c35 0 53 13 53 37c0 28 -22 39 -69 39c-7 0 -14 -1 -21 -1v100h45v-46h7c77 0 115 -31 115 -94c0 -58 -43 -93 -122 -93c-33 0 -77 6 -132 21z" />
    <glyph glyph-name="hungarumlaut" unicode="&#x2dd;" 
d="M199 607h-51l65 170h92zM276 607l79 170h96l-124 -170h-51z" />
    <glyph glyph-name="ogonek" unicode="&#x2db;" 
d="M305 0c-42 -36 -64 -68 -64 -104c0 -28 12 -39 43 -39h46v-76h-47c-76 0 -113 27 -113 88c0 43 31 85 92 131h43z" />
    <glyph glyph-name="caron" unicode="&#x2c7;" 
d="M105 778h63l82 -103l81 103h64l-92 -171h-106z" />
    <glyph glyph-name="emdash" unicode="&#x2014;" horiz-adv-x="1000" 
d="M0 221v95h1000v-95h-1000z" />
    <glyph glyph-name="AE" unicode="&#xc6;" horiz-adv-x="833" 
d="M393 322v254h-17l-124 -254h141zM393 0v190h-205l-92 -190h-156l380 711h456v-125h-245v-162h245v-123h-245v-176h245v-125h-383z" />
    <glyph glyph-name="ordfeminine" unicode="&#xaa;" horiz-adv-x="483" 
d="M352 335v46c-23 -38 -63 -54 -125 -54c-120 0 -210 86 -210 198c0 52 21 101 58 138c41 39 89 58 149 58c59 0 101 -19 127 -56v46h92v-376h-91zM113 526c0 -65 54 -111 117 -111c58 0 111 49 111 107c0 63 -54 112 -113 112c-62 0 -115 -47 -115 -108z" />
    <glyph glyph-name="Lslash" unicode="&#x141;" horiz-adv-x="454" 
d="M434 0h-361v256l-74 -53v123l74 53v332h138v-276l103 74v-125l-103 -72v-187h223v-125z" />
    <glyph glyph-name="Oslash" unicode="&#xd8;" horiz-adv-x="787" 
d="M191 48l-110 -126l-80 71l110 128c-56 71 -83 149 -83 242c0 99 38 188 109 257c70 68 158 104 258 104c71 0 133 -18 189 -54l103 115l82 -71l-100 -116c60 -68 90 -149 90 -238c0 -101 -36 -192 -103 -262c-70 -73 -163 -112 -271 -112c-71 0 -133 20 -194 62zM287 159
c25 -20 60 -29 103 -29c126 0 223 96 223 232c0 47 -13 88 -40 127zM491 559c-31 14 -62 22 -94 22c-127 0 -224 -95 -224 -225c0 -44 13 -82 39 -119z" />
    <glyph glyph-name="OE" unicode="&#x152;" horiz-adv-x="1050" 
d="M397 581c-126 0 -224 -96 -224 -222c0 -57 21 -111 60 -154c44 -48 103 -75 161 -75c120 0 219 96 219 232c0 121 -98 219 -216 219zM613 711h380v-125h-246v-162h246v-123h-246v-176h246v-125h-380v81c-59 -62 -133 -93 -225 -93c-76 0 -144 21 -202 62
c-102 72 -158 181 -158 313c0 99 38 188 109 257c70 68 155 103 256 103c91 0 162 -31 220 -94v82z" />
    <glyph glyph-name="ordmasculine" unicode="&#xba;" horiz-adv-x="457" 
d="M17 525c0 52 21 101 61 138c41 38 93 59 148 59c58 0 107 -18 148 -54c42 -38 66 -89 66 -141c0 -57 -20 -105 -60 -143c-41 -39 -93 -59 -153 -59s-109 20 -150 60c-39 39 -60 86 -60 140zM114 525c0 -70 45 -113 114 -113c68 0 114 43 114 115c0 65 -49 109 -114 109
c-67 0 -114 -46 -114 -111z" />
    <glyph glyph-name="ae" unicode="&#xe6;" horiz-adv-x="1037" 
d="M151 273c0 -93 71 -159 155 -159c78 0 149 70 149 153c0 90 -72 160 -151 160c-83 0 -153 -67 -153 -154zM880 327c-21 72 -73 110 -149 110c-66 0 -123 -43 -142 -110h291zM568 0h-96v83c-31 -65 -83 -95 -163 -95c-168 0 -286 122 -286 283c0 75 27 144 77 197
c54 57 118 83 199 83c83 0 137 -29 173 -95v81h96v-81c40 64 99 95 176 95c155 0 271 -117 271 -298c0 -8 -1 -17 -1 -25h-429c7 -77 64 -125 149 -125c55 0 100 24 127 66h135c-48 -120 -142 -185 -264 -185c-81 0 -135 32 -164 99v-83z" />
    <glyph glyph-name="dotlessi" unicode="&#x131;" horiz-adv-x="234" 
d="M56 0v537h122v-537h-122z" />
    <glyph glyph-name="lslash" unicode="&#x142;" horiz-adv-x="262" 
d="M69 0v279l-69 -48v109l69 48v323h123v-277l70 48v-108l-70 -49v-325h-123z" />
    <glyph glyph-name="oslash" unicode="&#xf8;" horiz-adv-x="609" 
d="M242 122c22 -8 42 -12 61 -12c89 0 152 64 152 159c0 34 -5 61 -19 84zM448 514l78 92l74 -59l-81 -96c44 -50 66 -113 66 -186c0 -72 -28 -141 -80 -194c-54 -55 -122 -84 -202 -84c-54 0 -99 11 -142 37l-78 -94l-73 62l81 95c-45 55 -68 114 -68 181
c0 58 16 112 47 158c53 80 140 126 231 126c52 0 100 -12 147 -38zM368 418c-19 8 -38 12 -59 12c-95 0 -157 -63 -157 -164c0 -30 6 -56 21 -81z" />
    <glyph glyph-name="oe" unicode="&#x153;" horiz-adv-x="1037" 
d="M152 272c0 -100 60 -161 152 -161c91 0 151 62 151 165c0 91 -66 153 -151 153c-89 0 -152 -64 -152 -157zM880 327c-21 72 -73 110 -149 110c-66 0 -123 -43 -142 -110h291zM1014 228h-429c7 -77 64 -125 149 -125c55 0 100 24 127 66h135c-47 -119 -142 -185 -260 -185
c-92 0 -166 35 -217 102c-57 -67 -126 -99 -216 -99c-81 0 -146 28 -201 86c-51 55 -78 124 -78 199s28 143 81 196c54 55 124 85 202 85c86 0 157 -35 214 -103c62 69 131 103 210 103c93 0 177 -44 233 -121c36 -48 51 -106 51 -177c0 -9 -1 -18 -1 -27z" />
    <glyph glyph-name="germandbls" unicode="&#xdf;" horiz-adv-x="602" 
d="M265 418c63 0 100 39 100 102c0 60 -41 100 -92 100c-73 0 -95 -43 -95 -133v-297h67c11 -62 51 -98 103 -98c59 0 110 51 110 107c0 76 -52 113 -157 113c-11 0 -23 0 -36 -1v107zM56 0v473c0 167 66 248 212 248c130 0 215 -83 215 -197c0 -52 -19 -91 -59 -126
c102 -28 156 -96 156 -194c0 -123 -89 -218 -208 -218c-93 0 -162 45 -194 128v-114h-122z" />
    <glyph glyph-name="Aacute" unicode="&#xc1;" horiz-adv-x="602" 
d="M162 149l-55 -149h-144l276 711h120l272 -711h-149l-56 149h-264zM380 281l-84 229l-86 -229h170zM229 778l100 170h108l-144 -170h-64z" />
    <glyph glyph-name="Acircumflex" unicode="&#xc2;" horiz-adv-x="602" 
d="M162 149l-55 -149h-144l276 711h120l272 -711h-149l-56 149h-264zM380 281l-84 229l-86 -229h170zM156 778l92 171h106l92 -171h-64l-81 103l-82 -103h-63z" />
    <glyph glyph-name="Adieresis" unicode="&#xc4;" horiz-adv-x="602" 
d="M162 149l-55 -149h-144l276 711h120l272 -711h-149l-56 149h-264zM380 281l-84 229l-86 -229h170zM166 803v112h100v-112h-100zM336 803v112h100v-112h-100z" />
    <glyph glyph-name="Agrave" unicode="&#xc0;" horiz-adv-x="602" 
d="M162 149l-55 -149h-144l276 711h120l272 -711h-149l-56 149h-264zM380 281l-84 229l-86 -229h170zM373 778h-64l-144 170h108z" />
    <glyph glyph-name="Aring" unicode="&#xc5;" horiz-adv-x="602" 
d="M162 149l-55 -149h-144l276 705h120l272 -705h-149l-56 149h-264zM380 281l-84 229l-86 -229h170zM247 844c0 -29 23 -52 52 -52s52 23 52 52s-23 53 -52 53s-52 -24 -52 -53zM187 844c0 62 50 112 112 112s112 -50 112 -112s-50 -111 -112 -111s-112 49 -112 111z" />
    <glyph glyph-name="Atilde" unicode="&#xc3;" horiz-adv-x="602" 
d="M162 149l-55 -149h-144l276 711h120l272 -711h-149l-56 149h-264zM380 281l-84 229l-86 -229h170zM448 921c-14 -71 -42 -110 -97 -110c-11 0 -23 1 -34 4l-41 12c-12 3 -23 6 -31 6c-22 0 -35 -11 -42 -33h-49c13 72 44 106 94 106c11 0 25 -2 41 -6l43 -12
c8 -2 16 -4 25 -4c20 0 36 13 42 37h49z" />
    <glyph glyph-name="Ccedilla" unicode="&#xc7;" horiz-adv-x="752" 
d="M727 500h-170c-39 53 -94 82 -167 82c-57 0 -110 -22 -150 -63c-43 -44 -66 -103 -66 -161c0 -133 98 -230 216 -230c70 0 127 27 162 76h170c-66 -145 -177 -218 -331 -218c-106 0 -197 41 -269 122c-60 67 -92 154 -92 252c0 99 38 189 111 262c68 67 153 103 251 103
c156 0 265 -74 335 -225zM263 -212v58c54 -14 95 -21 124 -21c35 0 53 13 53 37c0 28 -22 39 -69 39c-7 0 -14 -1 -21 -1v100h45v-46h7c77 0 115 -31 115 -94c0 -58 -43 -93 -122 -93c-33 0 -77 6 -132 21z" />
    <glyph glyph-name="Eacute" unicode="&#xc9;" 
d="M443 0h-384v711h384v-125h-246v-162h246v-123h-246v-176h246v-125zM178 778l100 170h108l-144 -170h-64z" />
    <glyph glyph-name="Ecircumflex" unicode="&#xca;" 
d="M443 0h-384v711h384v-125h-246v-162h246v-123h-246v-176h246v-125zM105 778l92 171h106l92 -171h-64l-81 103l-82 -103h-63z" />
    <glyph glyph-name="Edieresis" unicode="&#xcb;" 
d="M443 0h-384v711h384v-125h-246v-162h246v-123h-246v-176h246v-125zM115 803v112h100v-112h-100zM285 803v112h100v-112h-100z" />
    <glyph glyph-name="Egrave" unicode="&#xc8;" 
d="M443 0h-384v711h384v-125h-246v-162h246v-123h-246v-176h246v-125zM322 778h-64l-144 170h108z" />
    <glyph glyph-name="Iacute" unicode="&#xcd;" horiz-adv-x="259" 
d="M60 0v711h139v-711h-139zM58 778l100 170h108l-144 -170h-64z" />
    <glyph glyph-name="Icircumflex" unicode="&#xce;" horiz-adv-x="259" 
d="M60 0v711h139v-711h-139zM-15 778l92 171h106l92 -171h-64l-81 103l-82 -103h-63z" />
    <glyph glyph-name="Idieresis" unicode="&#xcf;" horiz-adv-x="259" 
d="M60 0v711h139v-711h-139zM-5 803v112h100v-112h-100zM165 803v112h100v-112h-100z" />
    <glyph glyph-name="Igrave" unicode="&#xcc;" horiz-adv-x="259" 
d="M60 0v711h139v-711h-139zM202 778h-64l-144 170h108z" />
    <glyph glyph-name="Ntilde" unicode="&#xd1;" horiz-adv-x="681" 
d="M196 0h-137v711h132l294 -454v454h136v-711h-129l-296 468v-468zM488 921c-14 -71 -42 -110 -97 -110c-11 0 -23 1 -34 4l-41 12c-12 3 -23 6 -31 6c-22 0 -35 -11 -42 -33h-49c13 72 44 106 94 106c11 0 25 -2 41 -6l43 -12c8 -2 16 -4 25 -4c20 0 36 13 42 37h49z" />
    <glyph glyph-name="Oacute" unicode="&#xd3;" horiz-adv-x="787" 
d="M28 357c0 79 21 148 62 208c70 102 180 160 306 160c95 0 185 -38 254 -106c71 -71 109 -162 109 -259c0 -102 -36 -193 -103 -262c-69 -72 -163 -112 -262 -112c-105 0 -195 37 -265 112c-66 70 -101 159 -101 259zM174 362c0 -61 20 -114 60 -158
c44 -48 102 -74 160 -74c121 0 220 96 220 232c0 121 -98 219 -217 219c-125 0 -223 -98 -223 -219zM322 778l100 170h108l-144 -170h-64z" />
    <glyph glyph-name="Ocircumflex" unicode="&#xd4;" horiz-adv-x="787" 
d="M28 357c0 79 21 148 62 208c70 102 180 160 306 160c95 0 185 -38 254 -106c71 -71 109 -162 109 -259c0 -102 -36 -193 -103 -262c-69 -72 -163 -112 -262 -112c-105 0 -195 37 -265 112c-66 70 -101 159 -101 259zM174 362c0 -61 20 -114 60 -158
c44 -48 102 -74 160 -74c121 0 220 96 220 232c0 121 -98 219 -217 219c-125 0 -223 -98 -223 -219zM249 778l92 171h106l92 -171h-64l-81 103l-82 -103h-63z" />
    <glyph glyph-name="Odieresis" unicode="&#xd6;" horiz-adv-x="787" 
d="M28 357c0 79 21 148 62 208c70 102 180 160 306 160c95 0 185 -38 254 -106c71 -71 109 -162 109 -259c0 -102 -36 -193 -103 -262c-69 -72 -163 -112 -262 -112c-105 0 -195 37 -265 112c-66 70 -101 159 -101 259zM174 362c0 -61 20 -114 60 -158
c44 -48 102 -74 160 -74c121 0 220 96 220 232c0 121 -98 219 -217 219c-125 0 -223 -98 -223 -219zM259 803v112h100v-112h-100zM429 803v112h100v-112h-100z" />
    <glyph glyph-name="Ograve" unicode="&#xd2;" horiz-adv-x="787" 
d="M28 357c0 79 21 148 62 208c70 102 180 160 306 160c95 0 185 -38 254 -106c71 -71 109 -162 109 -259c0 -102 -36 -193 -103 -262c-69 -72 -163 -112 -262 -112c-105 0 -195 37 -265 112c-66 70 -101 159 -101 259zM174 362c0 -61 20 -114 60 -158
c44 -48 102 -74 160 -74c121 0 220 96 220 232c0 121 -98 219 -217 219c-125 0 -223 -98 -223 -219zM466 778h-64l-144 170h108z" />
    <glyph glyph-name="Otilde" unicode="&#xd5;" horiz-adv-x="787" 
d="M28 357c0 79 21 148 62 208c70 102 180 160 306 160c95 0 185 -38 254 -106c71 -71 109 -162 109 -259c0 -102 -36 -193 -103 -262c-69 -72 -163 -112 -262 -112c-105 0 -195 37 -265 112c-66 70 -101 159 -101 259zM174 362c0 -61 20 -114 60 -158
c44 -48 102 -74 160 -74c121 0 220 96 220 232c0 121 -98 219 -217 219c-125 0 -223 -98 -223 -219zM541 921c-14 -71 -42 -110 -97 -110c-11 0 -23 1 -34 4l-41 12c-12 3 -23 6 -31 6c-22 0 -35 -11 -42 -33h-49c13 72 44 106 94 106c11 0 25 -2 41 -6l43 -12
c8 -2 16 -4 25 -4c20 0 36 13 42 37h49z" />
    <glyph glyph-name="Scaron" unicode="&#x160;" horiz-adv-x="479" 
d="M16 221h127v-10c0 -61 35 -99 86 -99c56 0 91 36 91 93c0 76 -42 81 -119 105c-109 34 -163 96 -163 194c0 134 81 221 203 221c115 0 187 -75 195 -205h-126v6c0 46 -30 76 -74 76c-45 0 -74 -30 -74 -80c0 -20 5 -36 17 -49c28 -31 75 -35 131 -54
c97 -33 143 -93 143 -190c0 -147 -89 -243 -223 -243c-126 0 -212 92 -214 235zM95 949h63l82 -103l81 103h64l-92 -171h-106z" />
    <glyph glyph-name="Uacute" unicode="&#xda;" horiz-adv-x="576" 
d="M59 711h139v-410c0 -116 18 -171 90 -171s90 55 90 171v410h139v-451c0 -74 -3 -131 -36 -179c-45 -66 -106 -95 -193 -95s-148 29 -193 95c-36 53 -36 110 -36 179v451zM216 778l100 170h108l-144 -170h-64z" />
    <glyph glyph-name="Ucircumflex" unicode="&#xdb;" horiz-adv-x="576" 
d="M59 711h139v-410c0 -116 18 -171 90 -171s90 55 90 171v410h139v-451c0 -74 -3 -131 -36 -179c-45 -66 -106 -95 -193 -95s-148 29 -193 95c-36 53 -36 110 -36 179v451zM143 778l92 171h106l92 -171h-64l-81 103l-82 -103h-63z" />
    <glyph glyph-name="Udieresis" unicode="&#xdc;" horiz-adv-x="576" 
d="M59 711h139v-410c0 -116 18 -171 90 -171s90 55 90 171v410h139v-451c0 -74 -3 -131 -36 -179c-45 -66 -106 -95 -193 -95s-148 29 -193 95c-36 53 -36 110 -36 179v451zM153 803v112h100v-112h-100zM323 803v112h100v-112h-100z" />
    <glyph glyph-name="Ugrave" unicode="&#xd9;" horiz-adv-x="576" 
d="M59 711h139v-410c0 -116 18 -171 90 -171s90 55 90 171v410h139v-451c0 -74 -3 -131 -36 -179c-45 -66 -106 -95 -193 -95s-148 29 -193 95c-36 53 -36 110 -36 179v451zM360 778h-64l-144 170h108z" />
    <glyph glyph-name="Ydieresis" unicode="&#x178;" horiz-adv-x="493" 
d="M314 256v-256h-139v256l-204 455h153l123 -306l122 306h152zM112 803v112h100v-112h-100zM282 803v112h100v-112h-100z" />
    <glyph glyph-name="Zcaron" unicode="&#x17d;" horiz-adv-x="475" 
d="M460 0h-446v123l281 456h-261v132h419v-114l-286 -465h293v-132zM93 949h63l82 -103l81 103h64l-92 -171h-106z" />
    <glyph glyph-name="aacute" unicode="&#xe1;" horiz-adv-x="644" 
d="M469 0v66c-30 -54 -84 -78 -167 -78c-160 0 -279 123 -279 283c0 75 27 145 77 197c54 57 118 83 199 83c78 0 134 -26 169 -79v65h122v-537h-121zM151 273c0 -93 71 -159 155 -159c78 0 149 70 149 153c0 90 -72 160 -151 160c-83 0 -153 -67 -153 -154zM250 607
l100 170h108l-144 -170h-64z" />
    <glyph glyph-name="acircumflex" unicode="&#xe2;" horiz-adv-x="644" 
d="M469 0v66c-30 -54 -84 -78 -167 -78c-160 0 -279 123 -279 283c0 75 27 145 77 197c54 57 118 83 199 83c78 0 134 -26 169 -79v65h122v-537h-121zM151 273c0 -93 71 -159 155 -159c78 0 149 70 149 153c0 90 -72 160 -151 160c-83 0 -153 -67 -153 -154zM177 607l92 171
h106l92 -171h-64l-81 103l-82 -103h-63z" />
    <glyph glyph-name="adieresis" unicode="&#xe4;" horiz-adv-x="644" 
d="M469 0v66c-30 -54 -84 -78 -167 -78c-160 0 -279 123 -279 283c0 75 27 145 77 197c54 57 118 83 199 83c78 0 134 -26 169 -79v65h122v-537h-121zM151 273c0 -93 71 -159 155 -159c78 0 149 70 149 153c0 90 -72 160 -151 160c-83 0 -153 -67 -153 -154zM187 632v112
h100v-112h-100zM357 632v112h100v-112h-100z" />
    <glyph glyph-name="agrave" unicode="&#xe0;" horiz-adv-x="644" 
d="M469 0v66c-30 -54 -84 -78 -167 -78c-160 0 -279 123 -279 283c0 75 27 145 77 197c54 57 118 83 199 83c78 0 134 -26 169 -79v65h122v-537h-121zM151 273c0 -93 71 -159 155 -159c78 0 149 70 149 153c0 90 -72 160 -151 160c-83 0 -153 -67 -153 -154zM394 607h-64
l-144 170h108z" />
    <glyph glyph-name="aring" unicode="&#xe5;" horiz-adv-x="644" 
d="M151 273c0 -93 71 -159 155 -159c78 0 149 70 149 153c0 90 -72 160 -151 160c-83 0 -153 -67 -153 -154zM469 0v66c-30 -54 -84 -78 -167 -78c-160 0 -279 123 -279 283c0 75 27 145 77 197c54 57 118 83 199 83c78 0 134 -26 169 -79v65h122v-537h-121zM191 691
c0 62 50 112 112 112s112 -50 112 -112s-50 -112 -112 -112s-112 50 -112 112zM251 691c0 -29 23 -53 52 -53s52 24 52 53s-23 52 -52 52s-52 -23 -52 -52z" />
    <glyph glyph-name="atilde" unicode="&#xe3;" horiz-adv-x="644" 
d="M469 0v66c-30 -54 -84 -78 -167 -78c-160 0 -279 123 -279 283c0 75 27 145 77 197c54 57 118 83 199 83c78 0 134 -26 169 -79v65h122v-537h-121zM151 273c0 -93 71 -159 155 -159c78 0 149 70 149 153c0 90 -72 160 -151 160c-83 0 -153 -67 -153 -154zM469 750
c-14 -71 -42 -110 -97 -110c-11 0 -23 1 -34 4l-41 12c-12 3 -23 6 -31 6c-22 0 -35 -11 -42 -33h-49c13 72 44 106 94 106c11 0 25 -2 41 -6l43 -12c8 -2 16 -4 25 -4c20 0 36 13 42 37h49z" />
    <glyph glyph-name="ccedilla" unicode="&#xe7;" horiz-adv-x="606" 
d="M442 346c-30 56 -76 84 -140 84c-84 0 -149 -67 -149 -161c0 -91 65 -159 153 -159c68 0 113 29 135 87h133c-32 -132 -132 -211 -267 -211c-80 0 -148 29 -202 84c-52 53 -81 127 -81 198c0 75 26 142 77 195c56 59 127 90 208 90c130 0 235 -79 266 -207h-133z
M180 -212v58c54 -14 95 -21 124 -21c35 0 53 13 53 37c0 28 -22 39 -69 39c-7 0 -14 -1 -21 -1v100h45v-46h7c77 0 115 -31 115 -94c0 -58 -43 -93 -122 -93c-33 0 -77 6 -132 21z" />
    <glyph glyph-name="eacute" unicode="&#xe9;" horiz-adv-x="606" 
d="M153 229c8 -77 64 -125 149 -125c55 0 102 24 128 67h135c-46 -118 -141 -185 -260 -185c-79 0 -147 28 -201 84c-51 53 -80 126 -80 198c0 75 26 142 76 195c55 58 126 90 200 90c93 0 177 -44 233 -121c36 -48 51 -105 51 -176c0 -9 -1 -18 -1 -27h-430zM449 328
c-21 72 -73 110 -149 110c-66 0 -124 -43 -143 -110h292zM231 607l100 170h108l-144 -170h-64z" />
    <glyph glyph-name="ecircumflex" unicode="&#xea;" horiz-adv-x="606" 
d="M153 229c8 -77 64 -125 149 -125c55 0 102 24 128 67h135c-46 -118 -141 -185 -260 -185c-79 0 -147 28 -201 84c-51 53 -80 126 -80 198c0 75 26 142 76 195c55 58 126 90 200 90c93 0 177 -44 233 -121c36 -48 51 -105 51 -176c0 -9 -1 -18 -1 -27h-430zM449 328
c-21 72 -73 110 -149 110c-66 0 -124 -43 -143 -110h292zM158 607l92 171h106l92 -171h-64l-81 103l-82 -103h-63z" />
    <glyph glyph-name="edieresis" unicode="&#xeb;" horiz-adv-x="606" 
d="M153 229c8 -77 64 -125 149 -125c55 0 102 24 128 67h135c-46 -118 -141 -185 -260 -185c-79 0 -147 28 -201 84c-51 53 -80 126 -80 198c0 75 26 142 76 195c55 58 126 90 200 90c93 0 177 -44 233 -121c36 -48 51 -105 51 -176c0 -9 -1 -18 -1 -27h-430zM449 328
c-21 72 -73 110 -149 110c-66 0 -124 -43 -143 -110h292zM168 632v112h100v-112h-100zM338 632v112h100v-112h-100z" />
    <glyph glyph-name="egrave" unicode="&#xe8;" horiz-adv-x="606" 
d="M153 229c8 -77 64 -125 149 -125c55 0 102 24 128 67h135c-46 -118 -141 -185 -260 -185c-79 0 -147 28 -201 84c-51 53 -80 126 -80 198c0 75 26 142 76 195c55 58 126 90 200 90c93 0 177 -44 233 -121c36 -48 51 -105 51 -176c0 -9 -1 -18 -1 -27h-430zM449 328
c-21 72 -73 110 -149 110c-66 0 -124 -43 -143 -110h292zM375 607h-64l-144 170h108z" />
    <glyph glyph-name="iacute" unicode="&#xed;" horiz-adv-x="234" 
d="M56 0v537h122v-537h-122zM45 607l100 170h108l-144 -170h-64z" />
    <glyph glyph-name="icircumflex" unicode="&#xee;" horiz-adv-x="234" 
d="M56 0v537h122v-537h-122zM-28 607l92 171h106l92 -171h-64l-81 103l-82 -103h-63z" />
    <glyph glyph-name="idieresis" unicode="&#xef;" horiz-adv-x="234" 
d="M56 0v537h122v-537h-122zM-18 632v112h100v-112h-100zM152 632v112h100v-112h-100z" />
    <glyph glyph-name="igrave" unicode="&#xec;" horiz-adv-x="234" 
d="M56 0v537h122v-537h-122zM189 607h-64l-144 170h108z" />
    <glyph glyph-name="ntilde" unicode="&#xf1;" horiz-adv-x="583" 
d="M178 537v-61c37 49 83 72 144 72c78 0 135 -30 173 -88c32 -50 35 -106 35 -176v-284h-125v238c0 127 -20 188 -111 188s-117 -66 -117 -196v-230h-121v537h122zM439 750c-14 -71 -42 -110 -97 -110c-11 0 -23 1 -34 4l-41 12c-12 3 -23 6 -31 6c-22 0 -35 -11 -42 -33
h-49c13 72 44 106 94 106c11 0 25 -2 41 -6l43 -12c8 -2 16 -4 25 -4c20 0 36 13 42 37h49z" />
    <glyph glyph-name="oacute" unicode="&#xf3;" horiz-adv-x="609" 
d="M23 271c0 75 28 145 81 198c54 54 124 84 197 84c78 0 143 -26 197 -77c56 -54 88 -128 88 -202c0 -81 -26 -149 -80 -204c-54 -56 -123 -84 -203 -84s-146 28 -201 86c-51 55 -79 123 -79 199zM152 272c0 -101 60 -162 152 -162c91 0 152 62 152 165
c0 92 -66 155 -152 155c-90 0 -152 -65 -152 -158zM233 607l100 170h108l-144 -170h-64z" />
    <glyph glyph-name="ocircumflex" unicode="&#xf4;" horiz-adv-x="609" 
d="M23 271c0 75 28 145 81 198c54 54 124 84 197 84c78 0 143 -26 197 -77c56 -54 88 -128 88 -202c0 -81 -26 -149 -80 -204c-54 -56 -123 -84 -203 -84s-146 28 -201 86c-51 55 -79 123 -79 199zM152 272c0 -101 60 -162 152 -162c91 0 152 62 152 165
c0 92 -66 155 -152 155c-90 0 -152 -65 -152 -158zM160 607l92 171h106l92 -171h-64l-81 103l-82 -103h-63z" />
    <glyph glyph-name="odieresis" unicode="&#xf6;" horiz-adv-x="609" 
d="M23 271c0 75 28 145 81 198c54 54 124 84 197 84c78 0 143 -26 197 -77c56 -54 88 -128 88 -202c0 -81 -26 -149 -80 -204c-54 -56 -123 -84 -203 -84s-146 28 -201 86c-51 55 -79 123 -79 199zM152 272c0 -101 60 -162 152 -162c91 0 152 62 152 165
c0 92 -66 155 -152 155c-90 0 -152 -65 -152 -158zM170 632v112h100v-112h-100zM340 632v112h100v-112h-100z" />
    <glyph glyph-name="ograve" unicode="&#xf2;" horiz-adv-x="609" 
d="M23 271c0 75 28 145 81 198c54 54 124 84 197 84c78 0 143 -26 197 -77c56 -54 88 -128 88 -202c0 -81 -26 -149 -80 -204c-54 -56 -123 -84 -203 -84s-146 28 -201 86c-51 55 -79 123 -79 199zM152 272c0 -101 60 -162 152 -162c91 0 152 62 152 165
c0 92 -66 155 -152 155c-90 0 -152 -65 -152 -158zM377 607h-64l-144 170h108z" />
    <glyph glyph-name="otilde" unicode="&#xf5;" horiz-adv-x="609" 
d="M23 271c0 75 28 145 81 198c54 54 124 84 197 84c78 0 143 -26 197 -77c56 -54 88 -128 88 -202c0 -81 -26 -149 -80 -204c-54 -56 -123 -84 -203 -84s-146 28 -201 86c-51 55 -79 123 -79 199zM152 272c0 -101 60 -162 152 -162c91 0 152 62 152 165
c0 92 -66 155 -152 155c-90 0 -152 -65 -152 -158zM452 750c-14 -71 -42 -110 -97 -110c-11 0 -23 1 -34 4l-41 12c-12 3 -23 6 -31 6c-22 0 -35 -11 -42 -33h-49c13 72 44 106 94 106c11 0 25 -2 41 -6l43 -12c8 -2 16 -4 25 -4c20 0 36 13 42 37h49z" />
    <glyph glyph-name="scaron" unicode="&#x161;" horiz-adv-x="407" 
d="M137 178v-7c0 -49 28 -80 65 -80c36 0 62 24 62 59c0 34 -17 51 -58 70c-47 22 -84 32 -101 46c-39 32 -58 71 -58 123c0 91 73 162 163 162c95 0 154 -58 159 -158h-112v3c0 35 -19 55 -51 55c-28 0 -49 -22 -49 -50c0 -42 36 -49 102 -78c83 -37 120 -74 120 -164
c0 -100 -76 -173 -179 -173c-102 0 -171 72 -177 192h114zM59 778h63l82 -103l81 103h64l-92 -171h-106z" />
    <glyph glyph-name="uacute" unicode="&#xfa;" horiz-adv-x="583" 
d="M405 0v58c-37 -49 -83 -72 -144 -72c-133 0 -209 84 -209 240v311h126v-241c0 -127 19 -189 111 -189c91 0 117 67 117 197v233h123v-537h-124zM220 607l100 170h108l-144 -170h-64z" />
    <glyph glyph-name="ucircumflex" unicode="&#xfb;" horiz-adv-x="583" 
d="M405 0v58c-37 -49 -83 -72 -144 -72c-133 0 -209 84 -209 240v311h126v-241c0 -127 19 -189 111 -189c91 0 117 67 117 197v233h123v-537h-124zM147 607l92 171h106l92 -171h-64l-81 103l-82 -103h-63z" />
    <glyph glyph-name="udieresis" unicode="&#xfc;" horiz-adv-x="583" 
d="M405 0v58c-37 -49 -83 -72 -144 -72c-133 0 -209 84 -209 240v311h126v-241c0 -127 19 -189 111 -189c91 0 117 67 117 197v233h123v-537h-124zM157 632v112h100v-112h-100zM327 632v112h100v-112h-100z" />
    <glyph glyph-name="ugrave" unicode="&#xf9;" horiz-adv-x="583" 
d="M405 0v58c-37 -49 -83 -72 -144 -72c-133 0 -209 84 -209 240v311h126v-241c0 -127 19 -189 111 -189c91 0 117 67 117 197v233h123v-537h-124zM364 607h-64l-144 170h108z" />
    <glyph glyph-name="ydieresis" unicode="&#xff;" horiz-adv-x="512" 
d="M-11 537h132l131 -375l144 375h131l-290 -711h-129l75 189zM121 632v112h100v-112h-100zM291 632v112h100v-112h-100z" />
    <glyph glyph-name="zcaron" unicode="&#x17e;" horiz-adv-x="421" 
d="M17 0v115l240 306h-220v116h354v-134l-223 -283h238v-120h-389zM66 778h63l82 -103l81 103h64l-92 -171h-106z" />
    <glyph glyph-name="trademark" unicode="&#x2122;" horiz-adv-x="833" 
d="M110 713h228v-46h-82v-219h-63v219h-83v46zM395 713h83l69 -176l65 176h83v-265h-56v209l-78 -209h-29l-81 209v-209h-56v265z" />
    <glyph glyph-name="copyright" unicode="&#xa9;" horiz-adv-x="833" 
d="M416 718c98 0 187 -36 257 -106c68 -68 105 -157 105 -255c0 -99 -36 -188 -104 -254c-71 -70 -163 -108 -258 -108s-185 38 -254 107s-107 159 -107 255c0 95 39 186 108 256c68 69 154 105 253 105zM417 665c-84 0 -159 -30 -217 -89c-59 -60 -91 -138 -91 -219
c0 -82 32 -158 91 -217s136 -91 217 -91s158 32 219 92c58 57 89 131 89 216c0 83 -31 160 -89 218c-59 59 -135 90 -219 90zM589 441h-81c-7 48 -41 75 -93 75c-62 0 -103 -56 -103 -159c0 -100 40 -155 108 -155c51 0 85 29 92 82h81c-5 -87 -75 -146 -176 -146
c-118 0 -194 82 -194 216c0 137 79 222 196 222c96 0 164 -55 170 -135z" />
    <glyph glyph-name="logicalnot" unicode="&#xac;" horiz-adv-x="833" 
d="M124 421h585v-245h-81v164h-504v81z" />
    <glyph glyph-name="registered" unicode="&#xae;" horiz-adv-x="833" 
d="M416 718c99 0 189 -37 259 -108c67 -68 103 -156 103 -253c0 -100 -37 -189 -106 -256c-71 -69 -162 -106 -256 -106c-96 0 -187 39 -256 109c-68 69 -105 158 -105 253c0 96 39 188 109 258c68 68 154 103 252 103zM417 665c-84 0 -157 -30 -215 -88
c-60 -61 -93 -139 -93 -220s31 -157 89 -216c59 -59 136 -92 214 -92c85 0 162 31 223 90c58 56 90 132 90 213c0 87 -30 162 -88 221c-60 60 -135 92 -220 92zM269 566h156c114 0 171 -39 171 -110c0 -59 -32 -99 -90 -112l90 -183h-97l-80 169h-63v-169h-87v405zM356 511
v-127h57c64 0 94 18 94 62c0 46 -32 65 -98 65h-53z" />
    <glyph glyph-name="minus" unicode="&#x2212;" horiz-adv-x="833" 
d="M124 340h585v-83h-585v83z" />
    <glyph glyph-name="Eth" unicode="&#xd0;" horiz-adv-x="699" 
d="M315 0h-242v298h-73v116h73v297h237c112 0 190 -16 261 -85c67 -65 102 -158 102 -274c0 -129 -49 -233 -141 -299c-62 -45 -129 -53 -217 -53zM306 122c153 0 225 72 225 234c0 148 -84 234 -227 234h-91v-176h147v-116h-147v-176h93z" />
    <glyph glyph-name="Thorn" unicode="&#xde;" horiz-adv-x="514" 
d="M198 148v-148h-139v711h139v-126h38c77 0 131 -5 169 -30c58 -39 94 -109 94 -184c0 -131 -92 -223 -249 -223h-52zM198 268h37c79 0 120 35 120 96c0 64 -40 97 -121 97h-36v-193z" />
    <glyph glyph-name="Yacute" unicode="&#xdd;" horiz-adv-x="493" 
d="M314 256v-256h-139v256l-204 455h153l123 -306l122 306h152zM175 778l100 170h108l-144 -170h-64z" />
    <glyph glyph-name="brokenbar" unicode="&#xa6;" 
d="M207 699h87v-370h-87v370zM207 199h87v-370h-87v370z" />
    <glyph glyph-name="degree" unicode="&#xb0;" horiz-adv-x="329" 
d="M165 713c79 0 144 -65 144 -145c0 -78 -64 -144 -145 -144c-80 0 -143 63 -143 144s64 145 144 145zM165 659c-50 0 -91 -40 -91 -90s41 -91 91 -91c51 0 90 42 90 91c0 50 -40 90 -90 90z" />
    <glyph glyph-name="divide" unicode="&#xf7;" horiz-adv-x="833" 
d="M417 551c37 0 67 -31 67 -68c0 -36 -29 -66 -67 -66s-67 29 -67 66s31 68 67 68zM124 339h585v-81h-585v81zM417 179c37 0 67 -30 67 -67c0 -36 -29 -66 -67 -66s-67 29 -67 66s31 67 67 67z" />
    <glyph glyph-name="eth" unicode="&#xf0;" horiz-adv-x="606" 
d="M249 717c41 -18 83 -40 125 -69l141 50l31 -77l-99 -37c75 -89 114 -198 114 -319c0 -172 -107 -278 -258 -278c-73 0 -132 24 -181 75c-47 48 -71 107 -71 173s26 127 73 173c48 47 113 73 178 73c45 0 84 -13 121 -40c-23 48 -47 82 -76 110l-145 -52l-30 75l97 36
c-18 10 -38 19 -58 28zM300 376c-76 0 -133 -57 -133 -137c0 -87 56 -142 138 -142s136 54 136 144c0 80 -58 135 -141 135z" />
    <glyph glyph-name="mu" unicode="&#x3bc;" horiz-adv-x="590" 
d="M100 528h112l-61 -310c-4 -19 -6 -36 -6 -51c0 -63 31 -96 89 -96c83 0 124 59 149 186l53 271h110l-71 -361c-6 -31 -9 -52 -9 -65c0 -23 9 -32 33 -32c5 0 11 0 17 1l-16 -78c-23 -6 -47 -8 -73 -8c-48 0 -73 20 -73 61v7c-27 -44 -73 -69 -124 -69s-87 15 -115 53
l-48 -247h-112z" />
    <glyph glyph-name="multiply" unicode="&#xd7;" horiz-adv-x="833" 
d="M197 580l224 -224l225 224l57 -57l-224 -225l224 -224l-57 -58l-225 225l-224 -225l-57 58l224 224l-224 225z" />
    <glyph glyph-name="onehalf" unicode="&#xbd;" horiz-adv-x="899" 
d="M239 313h-84v339h-78v59h162v-398zM628 725h71l-427 -740h-73zM862 0h-296v74l163 135c31 26 47 51 47 74c0 29 -24 51 -58 51c-36 0 -57 -21 -57 -59v-7h-88v1c0 83 60 136 146 136c84 0 145 -56 145 -123c0 -38 -22 -74 -67 -110l-125 -100h190v-72z" />
    <glyph glyph-name="onequarter" unicode="&#xbc;" horiz-adv-x="899" 
d="M239 313h-84v339h-78v59h162v-398zM628 725h71l-427 -740h-73zM834 0h-77v60h-197v67l193 271h81v-271h37v-67h-37v-60zM757 127v166l-119 -166h119z" />
    <glyph glyph-name="onesuperior" unicode="&#xb9;" horiz-adv-x="383" 
d="M251 284h-88v364h-82v63h170v-427z" />
    <glyph glyph-name="plusminus" unicode="&#xb1;" horiz-adv-x="833" 
d="M375 589h83v-163h251v-81h-251v-163h-83v163h-251v81h251v163zM124 89h585v-82h-585v82z" />
    <glyph glyph-name="thorn" unicode="&#xfe;" horiz-adv-x="644" 
d="M175 271c0 -92 67 -161 154 -161c88 0 156 73 156 159c0 89 -67 158 -162 158c-79 0 -148 -67 -148 -156zM170 43v-217h-123v885h123v-219c50 40 104 59 167 59c68 0 129 -22 176 -63c65 -56 101 -135 101 -221c0 -79 -33 -155 -91 -209c-50 -47 -115 -72 -185 -72
c-68 0 -121 17 -168 57z" />
    <glyph glyph-name="threequarters" unicode="&#xbe;" horiz-adv-x="899" 
d="M35 441h84v-3c0 -38 25 -62 61 -62c40 0 68 27 68 69c0 40 -28 62 -83 62c-4 0 -8 -1 -13 -1v66h12c38 0 55 12 55 41c0 23 -15 37 -39 37c-21 0 -34 -14 -35 -39h-78c0 66 48 108 118 108c64 0 113 -46 113 -99c0 -33 -14 -56 -44 -75c51 -20 76 -55 76 -107
c0 -34 -12 -63 -38 -89c-31 -32 -61 -44 -109 -44c-92 0 -148 50 -148 134v2zM628 725h71l-427 -740h-73zM834 0h-77v60h-197v67l193 271h81v-271h37v-67h-37v-60zM757 127v166l-119 -166h119z" />
    <glyph glyph-name="threesuperior" unicode="&#xb3;" horiz-adv-x="383" 
d="M37 421h88v-3c0 -40 26 -66 64 -66c41 0 71 29 71 73s-29 67 -87 67c-4 0 -9 -1 -13 -1v71c4 0 8 -1 12 -1c39 0 57 13 57 44c0 25 -15 40 -40 40c-23 0 -36 -15 -37 -41h-81c0 70 50 115 123 115c67 0 118 -50 118 -106c0 -35 -14 -60 -46 -80c53 -22 80 -59 80 -115
c0 -37 -13 -67 -40 -96c-32 -33 -64 -46 -115 -46c-96 0 -154 53 -154 143v2z" />
    <glyph glyph-name="twosuperior" unicode="&#xb2;" horiz-adv-x="383" 
d="M345 284h-310v80l170 144c33 28 49 55 49 79c0 31 -24 55 -61 55s-59 -23 -59 -63v-8h-92v2c0 88 62 145 153 145c87 0 152 -60 152 -132c0 -41 -24 -79 -70 -117l-132 -108h200v-77z" />
    <glyph glyph-name="yacute" unicode="&#xfd;" horiz-adv-x="512" 
d="M-11 537h132l131 -375l144 375h131l-290 -711h-129l75 189zM184 607l100 170h108l-144 -170h-64z" />
  </font>
</defs>
</svg>
