<?xml version="1.0" standalone="no"?>
<!DOCTYPE svg PUBLIC "-//W3C//DTD SVG 1.1//EN" "http://www.w3.org/Graphics/SVG/1.1/DTD/svg11.dtd" >
<svg xmlns="http://www.w3.org/2000/svg" width="100%" height="100%">
<metadata>
Created by FontXChange 20110222 at Thu Nov 19 10:49:05 2015
 By Jason Coe
Copyright 1990 as an unpublished work by Bitstream Inc.  All rights reserved.  Confidential.
</metadata>
<defs>
<font id="AvantGardeITCbyBT-Medium" horiz-adv-x="500" >
  <font-face 
    font-family="ITC Avant Garde Gothic"
    font-weight="500"
    font-stretch="normal"
    units-per-em="1000"
    panose-1="2 0 6 3 0 0 0 0 0 0"
    ascent="800"
    descent="-200"
    x-height="537"
    cap-height="711"
    bbox="-167 -236 1257 963"
    underline-thickness="70"
    underline-position="-87"
    stemh="96"
    stemv="96"
    unicode-range="U+0020-FB02"
  />
    <missing-glyph />
    <glyph glyph-name="space" unicode=" " horiz-adv-x="286" 
 />
    <glyph glyph-name="exclam" unicode="!" horiz-adv-x="290" 
d="M97 0v114h96v-114h-96zM97 176v535h96v-535h-96z" />
    <glyph glyph-name="quotedbl" unicode="&#x22;" horiz-adv-x="300" 
d="M112 701v-271h-68v271h68zM256 701v-271h-68v271h68z" />
    <glyph glyph-name="numbersign" unicode="#" horiz-adv-x="769" 
d="M451 712l-79 -222h125l80 222h80l-78 -222h147l-25 -71h-148l-45 -129h157l-25 -71h-157l-79 -221h-81l79 221h-126l-79 -221h-81l78 221h-151l26 71h151l45 129h-161l25 71h162l79 222h81zM473 419h-127l-45 -129h127z" />
    <glyph glyph-name="dollar" unicode="$" horiz-adv-x="572" 
d="M66 211h91c3 -77 43 -117 118 -117c68 0 112 45 112 115c0 25 -5 46 -14 61c-26 43 -65 47 -112 59c-116 30 -174 86 -174 183c0 104 57 177 151 194v103h87v-104c84 -13 138 -79 144 -178h-94c-4 56 -41 91 -96 91c-61 0 -98 -41 -98 -100c0 -22 6 -40 19 -55
c30 -35 84 -32 142 -53c93 -33 142 -99 142 -189c0 -114 -65 -201 -159 -214v-125h-87v120c-105 14 -171 94 -172 209z" />
    <glyph glyph-name="percent" unicode="%" horiz-adv-x="877" 
d="M487 161c0 47 18 91 51 124s77 51 124 51s91 -18 124 -51s51 -77 51 -124c0 -48 -18 -91 -51 -124s-77 -51 -124 -51s-91 18 -124 51s-51 77 -51 124zM564 161c0 -54 43 -97 97 -97s96 43 96 97s-42 96 -96 96s-97 -42 -97 -96zM594 725h69l-379 -740h-71zM40 550
c0 47 18 91 51 124s77 51 124 51s91 -18 124 -51s51 -77 51 -124c0 -48 -18 -91 -51 -124s-77 -51 -124 -51s-91 18 -124 51s-51 77 -51 124zM117 550c0 -54 43 -96 97 -96s96 42 96 96s-42 96 -96 96s-97 -42 -97 -96z" />
    <glyph glyph-name="ampersand" unicode="&#x26;" horiz-adv-x="694" 
d="M485 134c-53 -98 -124 -148 -212 -148c-116 0 -209 97 -209 212c0 85 43 147 134 204c-56 44 -82 89 -82 147c0 96 73 171 174 171c89 0 164 -78 164 -167c0 -65 -38 -118 -113 -160l108 -102l69 177h104l-97 -244l167 -150l-62 -70zM410 201l-147 139
c-67 -39 -99 -82 -99 -140c0 -66 47 -113 108 -113c58 0 104 38 138 114zM278 450c53 28 80 61 80 102s-31 75 -72 75c-40 0 -74 -30 -74 -74c0 -42 21 -69 66 -103z" />
    <glyph glyph-name="quoteright" unicode="&#x2019;" horiz-adv-x="231" 
d="M66 711h99v-106c0 -78 -25 -118 -99 -135v64c25 7 34 21 34 49v9h-34v119z" />
    <glyph glyph-name="parenleft" unicode="(" horiz-adv-x="278" 
d="M252 -93v-116c-145 59 -191 148 -191 304v332c0 148 60 244 191 298v-119c-79 -40 -90 -99 -90 -195v-288c0 -108 10 -172 90 -216z" />
    <glyph glyph-name="parenright" unicode=")" horiz-adv-x="278" 
d="M25 -93c80 44 91 108 91 216v288c0 96 -12 155 -91 195v119c131 -54 192 -150 192 -298v-332c0 -156 -47 -245 -192 -304v116z" />
    <glyph glyph-name="asterisk" unicode="*" 
d="M250 456l-86 -124l-67 46l95 120l-139 38l26 77l133 -46v144h75v-144l134 46l27 -77l-141 -38l96 -119l-66 -47z" />
    <glyph glyph-name="plus" unicode="+" horiz-adv-x="833" 
d="M451 596v-264h258v-68h-258v-264h-69v264h-258v68h258v264h69z" />
    <glyph glyph-name="comma" unicode="," horiz-adv-x="286" 
d="M95 -118v61c25 5 34 21 34 53v10h-34v114h96v-105c0 -77 -29 -120 -96 -133z" />
    <glyph glyph-name="hyphen" unicode="-" horiz-adv-x="331" 
d="M287 223h-243v90h243v-90z" />
    <glyph glyph-name="period" unicode="." horiz-adv-x="286" 
d="M192 0h-98v120h98v-120z" />
    <glyph glyph-name="slash" unicode="/" horiz-adv-x="278" 
d="M45 -93h-73l234 818h72z" />
    <glyph glyph-name="zero" unicode="0" horiz-adv-x="572" 
d="M149 232v-11c0 -32 1 -57 17 -80c24 -35 68 -57 118 -57c93 0 138 50 138 152v238c0 40 0 69 -17 94c-24 36 -69 58 -120 58c-50 0 -93 -21 -117 -55c-17 -24 -19 -54 -19 -96v-243zM43 250v210c0 65 4 117 43 168c47 62 117 96 200 96c86 0 158 -36 205 -103
c29 -41 38 -91 38 -157v-217c0 -69 -9 -121 -39 -162c-45 -63 -119 -99 -204 -99c-82 0 -153 34 -202 96c-32 41 -41 95 -41 168z" />
    <glyph glyph-name="one" unicode="1" horiz-adv-x="572" 
d="M347 0h-104v627h-124v84h228v-711z" />
    <glyph glyph-name="two" unicode="2" horiz-adv-x="572" 
d="M510 0h-450v99l249 239c59 57 102 97 102 161c0 71 -53 128 -129 128c-78 0 -125 -52 -125 -142v-8h-97v2c0 150 94 245 231 245c125 0 221 -100 221 -221c0 -74 -35 -132 -103 -196l-221 -208h322v-99z" />
    <glyph glyph-name="three" unicode="3" horiz-adv-x="572" 
d="M51 218h96c3 -81 57 -136 129 -136c78 0 137 60 137 138c0 87 -55 139 -154 139c-8 0 -17 0 -25 -1v97c7 -1 15 -1 21 -1c73 0 110 30 110 89c0 51 -36 87 -82 87c-52 0 -85 -32 -87 -87h-94c4 111 77 182 184 182c101 0 177 -82 177 -176c0 -58 -21 -100 -69 -133
c76 -30 118 -98 118 -190c0 -134 -98 -240 -230 -240c-140 0 -228 86 -231 232z" />
    <glyph glyph-name="four" unicode="4" horiz-adv-x="572" 
d="M356 215v349l-213 -349h213zM455 0h-99v124h-313v91l313 496h99v-496h72v-91h-72v-124z" />
    <glyph glyph-name="five" unicode="5" horiz-adv-x="572" 
d="M38 217h100c11 -81 68 -131 142 -131c86 0 150 65 150 155c0 89 -61 149 -152 149c-54 0 -95 -21 -119 -61l-88 19l66 363h329v-100h-256l-34 -167c33 30 73 44 121 44c134 0 236 -110 236 -248c0 -141 -107 -254 -260 -254c-137 0 -228 88 -235 231z" />
    <glyph glyph-name="six" unicode="6" horiz-adv-x="572" 
d="M136 243c0 -89 68 -157 147 -157c84 0 147 62 147 152c0 89 -61 151 -144 151c-86 0 -150 -69 -150 -146zM301 711h113l-161 -242c20 8 38 12 55 12c124 0 224 -107 224 -239c0 -44 -12 -88 -36 -131c-45 -82 -118 -125 -212 -125c-67 0 -127 25 -173 72
c-47 48 -72 110 -72 170c0 92 47 162 106 250z" />
    <glyph glyph-name="seven" unicode="7" horiz-adv-x="572" 
d="M236 0h-109l271 613h-302v98h400v-108z" />
    <glyph glyph-name="eight" unicode="8" horiz-adv-x="572" 
d="M170 394c-48 33 -74 83 -74 142c0 102 82 188 188 188c111 0 192 -83 192 -189c0 -60 -27 -109 -77 -141c71 -31 108 -92 108 -176c0 -134 -92 -232 -225 -232c-122 0 -217 100 -217 228c0 85 33 143 105 180zM197 537c0 -59 34 -97 88 -97c56 0 90 35 90 95
c0 56 -37 95 -88 95c-52 0 -90 -40 -90 -93zM162 215c0 -80 56 -132 121 -132c74 0 126 55 126 130c0 78 -49 130 -123 130s-124 -50 -124 -128z" />
    <glyph glyph-name="nine" unicode="9" horiz-adv-x="572" 
d="M271 0h-115l161 241c-20 -8 -38 -12 -55 -12c-124 0 -224 107 -224 239c0 44 13 90 37 133c44 79 120 124 211 124c68 0 127 -25 173 -72c47 -48 73 -110 73 -170c0 -93 -47 -162 -105 -249zM435 467c0 89 -67 157 -147 157c-88 0 -148 -59 -148 -152
c0 -89 62 -150 145 -150c86 0 150 67 150 145z" />
    <glyph glyph-name="colon" unicode=":" horiz-adv-x="289" 
d="M194 0h-99v120h99v-120zM194 394h-99v120h99v-120z" />
    <glyph glyph-name="semicolon" unicode=";" horiz-adv-x="289" 
d="M97 -118v61c25 5 34 21 34 52v10h-35v115h98v-106c0 -77 -31 -120 -97 -132zM194 394h-98v120h98v-120z" />
    <glyph glyph-name="less" unicode="&#x3c;" horiz-adv-x="833" 
d="M704 491l-473 -193l473 -192v-75l-575 236v63l575 236v-75z" />
    <glyph glyph-name="equal" unicode="=" horiz-adv-x="833" 
d="M709 429v-68h-585v68h585zM709 235v-68h-585v68h585z" />
    <glyph glyph-name="greater" unicode="&#x3e;" horiz-adv-x="833" 
d="M704 330v-63l-575 -236v75l474 192l-474 193v75z" />
    <glyph glyph-name="question" unicode="?" horiz-adv-x="486" 
d="M170 186c1 67 24 129 69 183c43 51 93 76 93 146c0 68 -46 115 -116 115c-63 0 -107 -47 -109 -124h-96c2 130 94 219 212 219c121 0 213 -89 213 -208c0 -87 -44 -128 -92 -178c-40 -41 -71 -78 -75 -153h-99zM170 0v115h96v-115h-96z" />
    <glyph glyph-name="at" unicode="@" horiz-adv-x="1000" 
d="M581 232l29 115c-11 58 -46 90 -97 90c-90 0 -159 -97 -159 -219c0 -69 33 -107 91 -107c62 0 118 48 136 121zM627 417l28 56h64l-71 -281c-3 -12 -4 -22 -4 -29c0 -30 17 -46 49 -46c30 0 67 17 102 50c51 48 83 123 83 205c0 166 -132 284 -337 284
c-86 0 -159 -18 -223 -56c-124 -74 -196 -200 -196 -346c0 -115 39 -198 124 -263c63 -48 154 -78 256 -78c110 0 217 33 303 93l27 -40c-97 -73 -206 -109 -324 -109c-125 0 -228 31 -307 91c-100 77 -149 178 -149 307c0 107 34 205 99 284c94 115 230 177 394 177
c111 0 209 -33 275 -84c84 -65 129 -152 129 -251c0 -114 -42 -207 -121 -269c-45 -36 -100 -55 -154 -55c-65 0 -98 26 -98 77v9c-36 -58 -83 -85 -147 -85c-99 0 -153 57 -153 162c0 155 103 270 233 270c56 0 95 -25 118 -73z" />
    <glyph glyph-name="A" unicode="A" horiz-adv-x="602" 
d="M158 207l-80 -207h-109l278 711h100l278 -711h-113l-78 207h-276zM397 307l-100 270l-102 -270h202z" />
    <glyph glyph-name="B" unicode="B" horiz-adv-x="514" 
d="M215 711c153 0 232 -69 232 -195c0 -58 -26 -104 -76 -133c70 -21 113 -84 113 -166c0 -68 -27 -129 -70 -166c-53 -45 -111 -51 -188 -51h-164v711h153zM163 96h81c93 0 139 33 139 109c0 80 -47 123 -139 123h-81v-232zM164 413h33c99 0 147 25 147 104
c0 67 -41 97 -125 97h-55v-201z" />
    <glyph glyph-name="C" unicode="C" horiz-adv-x="752" 
d="M709 178c-62 -124 -174 -192 -318 -192c-106 0 -197 41 -269 122c-60 67 -92 154 -92 252c0 99 38 189 111 262c68 67 153 103 251 103c146 0 261 -72 317 -198h-121c-46 63 -113 95 -197 95c-67 0 -129 -26 -176 -74c-50 -51 -78 -121 -78 -189c0 -75 26 -143 72 -191
c49 -51 116 -80 182 -80c82 0 149 32 191 90h127z" />
    <glyph glyph-name="D" unicode="D" horiz-adv-x="676" 
d="M257 0h-200v711h229c216 0 357 -147 357 -358c0 -122 -51 -224 -143 -290c-76 -55 -149 -63 -243 -63zM157 95h125c160 0 257 100 257 257c0 161 -100 262 -276 262h-106v-519z" />
    <glyph glyph-name="E" unicode="E" horiz-adv-x="495" 
d="M431 0h-369v711h369v-95h-266v-212h266v-93h-266v-213h266v-98z" />
    <glyph glyph-name="F" unicode="F" horiz-adv-x="477" 
d="M60 0v711h350v-95h-248v-212h248v-93h-248v-311h-102z" />
    <glyph glyph-name="G" unicode="G" horiz-adv-x="787" 
d="M314 359h440c-10 -226 -161 -373 -363 -373c-106 0 -197 41 -269 122c-60 67 -92 154 -92 252c0 99 38 190 111 262c69 69 154 103 258 103c145 0 257 -71 312 -194h-127c-47 60 -113 91 -193 91c-67 0 -129 -26 -176 -74c-50 -51 -78 -121 -78 -189
c0 -75 26 -143 72 -191c49 -51 116 -80 182 -80c107 0 191 57 245 171h-322v100z" />
    <glyph glyph-name="H" unicode="H" horiz-adv-x="620" 
d="M165 0h-103v711h103v-302h290v302h103v-711h-103v308h-290v-308z" />
    <glyph glyph-name="I" unicode="I" horiz-adv-x="227" 
d="M165 0h-103v711h103v-711z" />
    <glyph glyph-name="J" unicode="J" horiz-adv-x="442" 
d="M385 244c0 -71 -2 -127 -31 -172c-35 -55 -94 -86 -169 -86c-112 0 -181 67 -183 175h102c6 -52 34 -79 83 -79c89 0 95 60 95 176v453h103v-467z" />
    <glyph glyph-name="K" unicode="K" horiz-adv-x="546" 
d="M165 0h-103v711h103v-711zM169 353l268 358h124l-276 -353l269 -358h-129z" />
    <glyph glyph-name="L" unicode="L" horiz-adv-x="419" 
d="M398 0h-336v711h103v-613h233v-98z" />
    <glyph glyph-name="M" unicode="M" horiz-adv-x="842" 
d="M161 0h-99v711h153l206 -550l206 550h151v-711h-97l7 617l-231 -617h-73l-230 617z" />
    <glyph glyph-name="N" unicode="N" horiz-adv-x="676" 
d="M165 0h-103v711h106l349 -538l-5 538h102v-711h-99l-357 554z" />
    <glyph glyph-name="O" unicode="O" horiz-adv-x="787" 
d="M30 360c0 99 38 190 111 262c68 67 153 103 251 103c100 0 185 -35 255 -104c72 -71 109 -160 109 -261c0 -102 -32 -187 -94 -254c-73 -79 -164 -120 -271 -120c-106 0 -197 41 -269 122c-60 67 -92 154 -92 252zM137 359c0 -75 26 -143 72 -191c49 -51 116 -80 182 -80
c147 0 259 118 259 273c0 65 -24 126 -70 176c-53 57 -113 85 -189 85c-67 0 -129 -26 -176 -74c-50 -51 -78 -121 -78 -189z" />
    <glyph glyph-name="P" unicode="P" horiz-adv-x="514" 
d="M164 0h-102v711h165c70 0 124 -3 170 -30c59 -34 97 -103 97 -178c0 -128 -91 -217 -248 -217h-82v-286zM164 381h75c101 0 151 32 151 116c0 82 -49 119 -148 119h-78v-235z" />
    <glyph glyph-name="Q" unicode="Q" horiz-adv-x="787" 
d="M590 44c-60 -39 -126 -58 -198 -58c-83 0 -161 27 -225 78c-88 71 -137 175 -137 296c0 99 38 189 111 262c68 67 153 103 251 103c100 0 185 -35 255 -104c73 -72 110 -163 110 -270c0 -93 -29 -171 -89 -239c25 -12 51 -18 82 -18h13v-99h-9c-52 0 -107 16 -164 49z
M498 110c-74 68 -160 103 -245 103c-23 0 -46 -3 -70 -11c51 -73 128 -114 214 -114c33 0 66 8 101 22zM576 168c53 59 74 117 74 193c0 65 -24 127 -70 176c-53 58 -113 85 -189 85c-67 0 -129 -26 -176 -74c-51 -52 -79 -121 -79 -193c0 -23 4 -48 11 -74
c34 17 72 23 117 23c100 0 211 -43 312 -136z" />
    <glyph glyph-name="R" unicode="R" horiz-adv-x="565" 
d="M165 0h-103v711h205c173 0 263 -83 263 -230c0 -114 -81 -202 -202 -208l202 -273h-129l-236 330v-330zM165 342h53c141 0 211 45 211 140s-62 133 -187 133h-77v-273z" />
    <glyph glyph-name="S" unicode="S" horiz-adv-x="475" 
d="M24 205h93c3 -75 48 -121 111 -121c71 0 117 47 117 121c0 79 -43 100 -121 124c-51 14 -99 22 -143 82c-24 32 -36 68 -36 109c0 122 79 204 196 204c108 0 180 -70 187 -189h-96c-3 57 -42 95 -94 95c-58 0 -96 -44 -96 -104c0 -22 7 -41 20 -57c30 -35 81 -37 139 -57
c93 -35 143 -103 143 -197c0 -136 -84 -229 -214 -229c-120 0 -204 86 -206 219z" />
    <glyph glyph-name="T" unicode="T" horiz-adv-x="384" 
d="M244 0h-103v615h-133v96h369v-96h-133v-615z" />
    <glyph glyph-name="U" unicode="U" horiz-adv-x="565" 
d="M55 711h103v-452c0 -117 26 -172 127 -172c95 0 121 55 121 172v452h103v-451c0 -74 -4 -131 -35 -178c-43 -65 -104 -96 -187 -96c-89 0 -150 28 -196 95c-36 53 -36 110 -36 179v451z" />
    <glyph glyph-name="V" unicode="V" horiz-adv-x="567" 
d="M314 0h-61l-274 711h109l195 -530l196 530h108z" />
    <glyph glyph-name="W" unicode="W" horiz-adv-x="843" 
d="M-15 711h105l154 -548l139 548h77l138 -548l154 548h105l-215 -711h-93l-128 531l-129 -531h-92z" />
    <glyph glyph-name="X" unicode="X" horiz-adv-x="586" 
d="M293 278l-177 -278h-119l237 359l-231 352h120l170 -275l168 275h122l-231 -352l236 -359h-120z" />
    <glyph glyph-name="Y" unicode="Y" horiz-adv-x="493" 
d="M297 256v-256h-103v262l-218 449h115l156 -342l156 342h114z" />
    <glyph glyph-name="Z" unicode="Z" horiz-adv-x="475" 
d="M455 0h-436v101l311 510h-291v100h410v-90l-322 -523h328v-98z" />
    <glyph glyph-name="bracketleft" unicode="[" horiz-adv-x="278" 
d="M249 -123v-79h-188v913h188v-78h-94v-756h94z" />
    <glyph glyph-name="backslash" unicode="\" horiz-adv-x="278" 
d="M234 -93l-234 818h72l234 -818h-72z" />
    <glyph glyph-name="bracketright" unicode="]" horiz-adv-x="278" 
d="M217 -202h-188v79h93v756h-93v78h188v-913z" />
    <glyph glyph-name="asciicircum" unicode="^" horiz-adv-x="1000" 
d="M545 712l249 -272h-88l-206 205l-207 -205h-88l249 272h91z" />
    <glyph glyph-name="underscore" unicode="_" 
d="M500 -166v-70h-500v70h500z" />
    <glyph glyph-name="quoteleft" unicode="&#x2018;" horiz-adv-x="231" 
d="M165 484h-99v106c0 78 25 118 99 135v-65c-25 -7 -34 -21 -34 -49v-9h34v-118z" />
    <glyph glyph-name="a" unicode="a" horiz-adv-x="644" 
d="M491 0v66c-50 -52 -112 -78 -180 -78c-163 0 -281 122 -281 283c0 75 27 145 77 197c54 57 117 83 198 83c73 0 135 -26 186 -79v65h98v-537h-98zM130 272c0 -112 85 -192 186 -192c94 0 180 85 180 185c0 109 -86 192 -182 192c-100 0 -184 -80 -184 -185z" />
    <glyph glyph-name="b" unicode="b" horiz-adv-x="644" 
d="M152 66v-66h-98v711h97v-239c52 53 114 79 187 79c81 0 144 -26 198 -83c50 -52 78 -122 78 -197c0 -161 -119 -283 -282 -283c-68 0 -130 26 -180 78zM148 265c0 -100 86 -185 180 -185c101 0 185 80 185 192c0 105 -85 185 -184 185c-96 0 -181 -83 -181 -192z" />
    <glyph glyph-name="c" unicode="c" horiz-adv-x="606" 
d="M567 183c-45 -129 -135 -197 -262 -197c-79 0 -144 27 -197 83c-51 53 -80 127 -80 199c0 75 26 141 76 195c55 59 125 90 204 90c121 0 217 -69 259 -194h-106c-34 66 -87 98 -161 98c-94 0 -172 -80 -172 -188s77 -188 177 -188c68 0 125 37 156 102h106z" />
    <glyph glyph-name="d" unicode="d" horiz-adv-x="644" 
d="M491 0v66c-50 -52 -112 -78 -180 -78c-163 0 -281 122 -281 283c0 75 27 145 77 197c54 57 117 83 198 83c73 0 135 -26 187 -79v239h97v-711h-98zM130 272c0 -112 85 -192 186 -192c94 0 180 85 180 185c0 109 -86 192 -182 192c-100 0 -184 -80 -184 -185z" />
    <glyph glyph-name="e" unicode="e" horiz-adv-x="608" 
d="M129 233c16 -91 88 -151 176 -151c64 0 119 32 150 88h109c-50 -120 -142 -184 -259 -184c-79 0 -145 28 -198 84c-51 53 -80 127 -80 199c0 76 26 142 76 196c54 59 122 88 200 88c94 0 179 -45 232 -125c32 -49 46 -106 46 -180v-15h-452zM475 320
c-24 88 -86 139 -169 139c-84 0 -151 -53 -174 -139h343z" />
    <glyph glyph-name="f" unicode="f" horiz-adv-x="278" 
d="M180 0h-96v453h-64v84h61v16c0 110 61 166 183 166v-89h-8c-58 0 -80 -24 -80 -85v-8h88v-84h-84v-453z" />
    <glyph glyph-name="g" unicode="g" horiz-adv-x="644" 
d="M130 272c0 -112 85 -192 186 -192c94 0 180 85 180 185c0 109 -86 192 -182 192c-100 0 -184 -80 -184 -185zM65 -43h103c30 -50 79 -77 142 -77c107 0 181 69 181 179v7c-50 -52 -112 -78 -180 -78c-163 0 -281 122 -281 283c0 75 27 145 77 197c54 57 117 83 198 83
c73 0 135 -26 187 -79v65h97v-448c0 -190 -106 -299 -273 -299c-123 0 -214 61 -251 167z" />
    <glyph glyph-name="h" unicode="h" horiz-adv-x="565" 
d="M154 0h-97v711h97v-235c31 46 81 70 148 70c127 0 206 -84 206 -238v-308h-97v277c0 118 -39 176 -123 176c-51 0 -91 -24 -114 -68c-19 -36 -20 -82 -20 -141v-244z" />
    <glyph glyph-name="i" unicode="i" horiz-adv-x="211" 
d="M57 0v537h96v-537h-96zM153 600h-96v111h96v-111z" />
    <glyph glyph-name="j" unicode="j" horiz-adv-x="222" 
d="M159 600h-96v111h96v-111zM159 -5c0 -117 -37 -169 -141 -169c-7 0 -14 1 -21 1v95c61 0 66 20 66 78v28v509h96v-542z" />
    <glyph glyph-name="k" unicode="k" horiz-adv-x="477" 
d="M57 0v711h96v-423l191 249h113l-197 -255l233 -282h-124l-216 273v-273h-96z" />
    <glyph glyph-name="l" unicode="l" horiz-adv-x="211" 
d="M57 0v711h96v-711h-96z" />
    <glyph glyph-name="m" unicode="m" horiz-adv-x="868" 
d="M388 271c0 124 -31 187 -116 187s-122 -61 -122 -183v-275h-92v537h86v-63c36 49 81 72 138 72c77 0 128 -28 162 -93c33 63 87 93 166 93c118 0 200 -82 200 -218v-328h-97v313c0 93 -43 145 -114 145c-89 0 -117 -58 -117 -177v-281h-94v271z" />
    <glyph glyph-name="n" unicode="n" horiz-adv-x="574" 
d="M154 0h-97v537h93v-61c41 49 88 70 150 70c139 0 218 -84 218 -240v-306h-97v285c0 113 -41 168 -130 168c-103 0 -137 -70 -137 -209v-244z" />
    <glyph glyph-name="o" unicode="o" horiz-adv-x="606" 
d="M26 268c0 76 26 143 76 196c54 58 124 90 197 90c78 0 145 -28 199 -83c53 -54 82 -124 82 -196c0 -74 -28 -147 -75 -199c-54 -59 -123 -91 -201 -91s-145 28 -198 84c-51 53 -80 127 -80 199zM126 269c0 -108 77 -188 178 -188c98 0 176 79 176 189
c0 111 -78 188 -177 188c-97 0 -177 -78 -177 -189z" />
    <glyph glyph-name="p" unicode="p" horiz-adv-x="644" 
d="M151 65v-239h-97v711h98v-66c50 52 112 78 180 78c163 0 282 -122 282 -283c0 -75 -28 -145 -78 -197c-54 -57 -117 -83 -198 -83c-73 0 -135 26 -187 79zM148 272c0 -109 85 -192 181 -192c99 0 184 80 184 185c0 112 -84 192 -185 192c-94 0 -180 -85 -180 -185z" />
    <glyph glyph-name="q" unicode="q" horiz-adv-x="644" 
d="M590 -174h-98v239c-51 -53 -113 -79 -186 -79c-81 0 -144 26 -198 83c-50 52 -78 122 -78 197c0 161 119 283 282 283c68 0 130 -26 180 -78v66h98v-711zM316 457c-101 0 -185 -80 -185 -192c0 -105 84 -185 184 -185c96 0 181 83 181 192c0 100 -86 185 -180 185z" />
    <glyph glyph-name="r" unicode="r" horiz-adv-x="289" 
d="M155 0h-97v537h91v-62c32 48 72 70 127 71v-101c-91 -7 -121 -52 -121 -146v-299z" />
    <glyph glyph-name="s" unicode="s" horiz-adv-x="389" 
d="M20 174h91c0 -59 37 -98 83 -98c45 0 77 31 77 74c0 39 -21 63 -65 81c-48 19 -85 30 -106 47c-38 30 -56 68 -56 119c0 87 69 157 157 157c92 0 149 -56 154 -153h-93c-3 40 -27 63 -65 63c-35 0 -61 -27 -61 -62c0 -55 44 -59 113 -87c81 -33 114 -78 114 -161
c0 -97 -73 -168 -172 -168s-165 70 -171 188z" />
    <glyph glyph-name="t" unicode="t" horiz-adv-x="275" 
d="M90 0v449h-76v88h76v174h96v-174h76v-88h-76v-449h-96z" />
    <glyph glyph-name="u" unicode="u" horiz-adv-x="565" 
d="M505 0h-93v60c-38 -48 -85 -72 -145 -72c-133 0 -213 85 -213 240v309h97v-281c0 -116 41 -174 123 -174c51 0 92 25 115 69c19 36 20 81 20 140v246h96v-537z" />
    <glyph glyph-name="v" unicode="v" horiz-adv-x="495" 
d="M279 0h-73l-204 537h104l141 -392l145 392h102z" />
    <glyph glyph-name="w" unicode="w" horiz-adv-x="713" 
d="M356 364l-110 -364h-54l-186 537h103l110 -355l109 355h59l108 -355l111 355h102l-187 -537h-54z" />
    <glyph glyph-name="x" unicode="x" horiz-adv-x="456" 
d="M351 0l-124 203l-130 -203h-107l182 279l-161 258h108l112 -184l114 184h112l-170 -255l172 -282h-108z" />
    <glyph glyph-name="y" unicode="y" horiz-adv-x="512" 
d="M3 537h104l145 -400l157 400h104l-289 -711h-102l75 189z" />
    <glyph glyph-name="z" unicode="z" horiz-adv-x="403" 
d="M381 0h-371v78l259 371h-228v88h325v-99l-242 -347h257v-91z" />
    <glyph glyph-name="braceleft" unicode="{" 
d="M423 648h-20c-83 0 -99 -26 -99 -112v-118c0 -93 -17 -138 -98 -159c82 -21 98 -66 98 -159v-118c0 -85 15 -112 100 -112h19v-72h-21c-58 0 -101 4 -133 24c-44 27 -49 74 -49 150v120c0 95 -30 132 -117 132c-7 0 -14 -1 -21 -1v73c8 0 15 -1 22 -1
c86 0 116 36 116 131v120c0 76 5 123 49 150c33 20 76 25 136 25h18v-73z" />
    <glyph glyph-name="bar" unicode="|" 
d="M287 764v-1000h-73v1000h73z" />
    <glyph glyph-name="braceright" unicode="}" 
d="M281 546v-120c0 -95 30 -131 116 -131c7 0 14 1 22 1v-73c-7 0 -15 1 -21 1c-88 0 -117 -37 -117 -132v-120c0 -76 -5 -123 -49 -150c-32 -20 -75 -24 -133 -24h-21v72h19c84 0 100 27 100 113v117c0 93 17 138 98 159c-81 21 -98 66 -98 159v118c0 85 -16 112 -100 112
h-19v73h18c60 0 104 -5 136 -25c44 -27 49 -74 49 -150z" />
    <glyph glyph-name="asciitilde" unicode="~" horiz-adv-x="833" 
d="M747 300c-66 -46 -127 -69 -190 -69c-51 0 -95 18 -141 34c-47 16 -91 32 -141 32c-59 0 -117 -27 -188 -77v76c69 47 131 70 189 70c52 0 97 -14 142 -30c49 -17 93 -36 140 -36c62 0 120 27 189 76v-76z" />
    <glyph glyph-name="exclamdown" unicode="&#xa1;" horiz-adv-x="290" 
d="M97 711h96v-114h-96v114zM97 535h96v-535h-96v535z" />
    <glyph glyph-name="cent" unicode="&#xa2;" horiz-adv-x="572" 
d="M542 268c-36 -113 -110 -181 -210 -196v-112h-82v113c-131 25 -221 143 -221 280c0 141 86 253 221 281v103h82v-102c100 -13 174 -79 210 -191h-102c-31 66 -82 99 -152 99c-90 0 -164 -80 -164 -190c0 -108 73 -187 169 -187c65 0 119 36 147 102h102z" />
    <glyph glyph-name="sterling" unicode="&#xa3;" horiz-adv-x="572" 
d="M62 -1v96h111c27 27 41 58 41 97c0 49 -19 86 -53 131h-107v93h53c-14 31 -21 59 -21 88c0 117 103 219 235 219c109 0 193 -70 216 -187h-105c-17 55 -61 87 -116 87c-75 0 -125 -53 -125 -127c0 -25 7 -51 21 -80h219v-93h-156c23 -43 37 -80 37 -124
c0 -42 -11 -76 -36 -106c8 -2 17 -2 25 -2h16c93 0 140 36 140 109c0 16 -2 34 -7 54h100c4 -20 6 -36 6 -50c0 -78 -35 -145 -92 -178c-46 -27 -107 -27 -187 -27h-17h-198z" />
    <glyph glyph-name="fraction" unicode="&#x2044;" horiz-adv-x="167" 
d="M263 725h70l-429 -739h-71z" />
    <glyph glyph-name="yen" unicode="&#xa5;" horiz-adv-x="572" 
d="M444 482h83v-70h-117l-39 -80h156v-70h-191v-262h-102v262h-191v70h156l-39 80h-117v70h83l-109 225h114l156 -340l154 340h113z" />
    <glyph glyph-name="florin" unicode="&#x192;" horiz-adv-x="572" 
d="M301 -23c-11 -134 -60 -183 -197 -183c-10 0 -20 1 -30 1v89h20c77 0 97 24 103 100l32 367h-118v85h124l7 106c9 131 54 182 191 182c11 0 23 0 36 -1v-87h-16c-84 0 -100 -25 -107 -102l-8 -98h128v-85h-133z" />
    <glyph glyph-name="section" unicode="&#xa7;" 
d="M73 55h85v-5c0 -53 35 -84 94 -84c52 0 84 28 84 70c0 45 -38 72 -110 111l-89 48c-66 36 -98 81 -98 139c0 55 29 101 87 140c-30 25 -45 57 -45 98c0 89 66 153 164 153c105 0 169 -59 169 -156v-5h-83c-2 54 -36 87 -86 87c-48 0 -77 -26 -77 -67
c0 -46 38 -68 108 -105l86 -46c67 -36 99 -77 99 -146c0 -56 -35 -112 -90 -135c34 -29 50 -63 50 -106c0 -88 -71 -156 -177 -156c-102 0 -171 63 -171 163v2zM321 199c32 19 50 49 50 77c0 38 -29 67 -87 99l-106 58c-34 -20 -52 -44 -52 -73c0 -45 31 -67 87 -99z" />
    <glyph glyph-name="currency" unicode="&#xa4;" horiz-adv-x="606" 
d="M179 595c37 28 78 42 124 42c47 0 88 -14 125 -42l100 100l40 -39l-100 -101c27 -36 40 -77 40 -123c0 -45 -12 -86 -40 -123l100 -100l-40 -40l-100 100c-35 -26 -75 -42 -124 -42c-47 0 -88 14 -125 42l-100 -100l-40 40l101 100c-22 28 -41 70 -41 123
c0 46 14 87 41 123l-101 101l40 39zM452 433c0 81 -66 148 -148 148s-148 -67 -148 -148c0 -82 66 -149 148 -149s148 67 148 149z" />
    <glyph glyph-name="quotesingle" unicode="'" horiz-adv-x="155" 
d="M112 701v-271h-68v271h68z" />
    <glyph glyph-name="quotedblleft" unicode="&#x201c;" horiz-adv-x="394" 
d="M327 484h-99v106c0 78 25 118 99 135v-65c-25 -7 -34 -21 -34 -49v-9h34v-118zM165 484h-99v106c0 78 25 118 99 135v-65c-25 -7 -34 -21 -34 -49v-9h34v-118z" />
    <glyph glyph-name="guillemotleft" unicode="&#xab;" horiz-adv-x="504" 
d="M430 116h-74l-121 153l121 152h74l-119 -153zM256 116h-73l-121 153l121 152h73l-118 -153z" />
    <glyph glyph-name="guilsinglleft" unicode="&#x2039;" horiz-adv-x="331" 
d="M256 116h-73l-121 153l121 152h73l-118 -153z" />
    <glyph glyph-name="guilsinglright" unicode="&#x203a;" horiz-adv-x="331" 
d="M75 116l118 152l-118 153h73l121 -152l-121 -153h-73z" />
    <glyph glyph-name="fi" unicode="&#xfb01;" horiz-adv-x="484" 
d="M423 600h-96v111h96v-111zM177 0h-95v453h-64v84h60v16c0 110 61 166 183 166v-89h-8c-58 0 -79 -24 -79 -85v-8h87v-84h-84v-453zM327 0v537h96v-537h-96z" />
    <glyph glyph-name="fl" unicode="&#xfb02;" horiz-adv-x="484" 
d="M327 0v711h96v-711h-96zM177 0h-95v453h-65v84h61v16c0 110 61 166 183 166v-89h-8c-58 0 -79 -24 -79 -85v-8h87v-84h-84v-453z" />
    <glyph glyph-name="endash" unicode="&#x2013;" 
d="M0 233v70h500v-70h-500z" />
    <glyph glyph-name="dagger" unicode="&#x2020;" 
d="M202 -114v548h-173v84h173v193h96v-193h173v-84h-173v-548h-96z" />
    <glyph glyph-name="daggerdbl" unicode="&#x2021;" 
d="M202 -114v192h-173v84h173v272h-173v84h173v193h96v-193h173v-84h-173v-272h173v-84h-173v-192h-96z" />
    <glyph glyph-name="periodcentered" unicode="&#xb7;" horiz-adv-x="286" 
d="M88 356c0 30 25 54 55 54s54 -24 54 -54c0 -31 -24 -55 -54 -55s-55 24 -55 55z" />
    <glyph glyph-name="paragraph" unicode="&#xb6;" 
d="M468 680h-59v-680h-54v680h-87v-680h-54v382c-113 5 -182 73 -182 170c0 100 74 170 192 170h244v-42z" />
    <glyph glyph-name="bullet" unicode="&#x2022;" horiz-adv-x="590" 
d="M150 372c0 80 65 144 145 144c79 0 144 -64 144 -144c0 -79 -65 -145 -145 -145s-144 65 -144 145z" />
    <glyph glyph-name="quotesinglbase" unicode="&#x201a;" horiz-adv-x="231" 
d="M66 120h99v-106c0 -78 -25 -118 -99 -135v64c25 7 34 21 34 49v9h-34v119z" />
    <glyph glyph-name="quotedblbase" unicode="&#x201e;" horiz-adv-x="394" 
d="M66 120h99v-106c0 -78 -25 -118 -99 -135v64c25 7 34 21 34 49v9h-34v119zM228 120h99v-106c0 -78 -25 -118 -99 -135v64c25 7 34 21 34 49v9h-34v119z" />
    <glyph glyph-name="quotedblright" unicode="&#x201d;" horiz-adv-x="394" 
d="M66 711h99v-106c0 -78 -25 -118 -99 -135v64c25 7 34 21 34 49v9h-34v119zM228 711h99v-106c0 -78 -25 -118 -99 -135v64c25 7 34 21 34 49v9h-34v119z" />
    <glyph glyph-name="guillemotright" unicode="&#xbb;" horiz-adv-x="504" 
d="M248 116l118 152l-118 153h73l121 -152l-121 -153h-73zM74 116l119 152l-119 153h74l121 -152l-121 -153h-74z" />
    <glyph glyph-name="ellipsis" unicode="&#x2026;" horiz-adv-x="1000" 
d="M216 0h-98v120h98v-120zM549 0h-98v120h98v-120zM883 0h-98v120h98v-120z" />
    <glyph glyph-name="perthousand" unicode="&#x2030;" horiz-adv-x="1296" 
d="M487 161c0 47 18 91 51 124s77 51 124 51s91 -18 124 -51s51 -77 51 -124c0 -48 -18 -91 -51 -124s-77 -51 -124 -51s-91 18 -124 51s-51 77 -51 124zM564 161c0 -54 43 -97 97 -97s96 43 96 97s-42 96 -96 96s-97 -42 -97 -96zM594 725h69l-379 -740h-71zM40 550
c0 47 18 91 51 124s77 51 124 51s91 -18 124 -51s51 -77 51 -124c0 -48 -18 -91 -51 -124s-77 -51 -124 -51s-91 18 -124 51s-51 77 -51 124zM117 550c0 -54 43 -96 97 -96s96 42 96 96s-42 96 -96 96s-97 -42 -97 -96zM906 161c0 47 19 91 52 124s77 51 124 51
s91 -18 124 -51s51 -77 51 -124c0 -48 -18 -91 -51 -124s-77 -51 -124 -51s-91 18 -124 51s-52 77 -52 124zM984 161c0 -54 42 -97 96 -97s97 43 97 97s-43 96 -97 96s-96 -42 -96 -96z" />
    <glyph glyph-name="questiondown" unicode="&#xbf;" horiz-adv-x="486" 
d="M311 711v-115h-96v115h96zM311 525c-1 -67 -25 -129 -70 -183c-43 -51 -93 -77 -93 -147c0 -68 47 -114 117 -114c63 0 106 46 108 123h97c-2 -130 -95 -218 -213 -218c-121 0 -212 89 -212 208c0 87 43 128 91 178c40 41 72 78 76 153h99z" />
    <glyph glyph-name="grave" unicode="`" 
d="M320 606h-59l-139 170h98z" />
    <glyph glyph-name="acute" unicode="&#xb4;" 
d="M180 606l100 170h98l-139 -170h-59z" />
    <glyph glyph-name="circumflex" unicode="&#x2c6;" 
d="M106 606l96 170h96l96 -170h-60l-84 112l-85 -112h-59z" />
    <glyph glyph-name="tilde" unicode="&#x2dc;" 
d="M393 741c-13 -66 -47 -101 -96 -101c-10 0 -21 2 -32 5l-47 13c-10 3 -18 4 -24 4c-20 0 -35 -11 -44 -34h-43c12 66 46 101 94 101c10 0 20 -1 29 -4l48 -14c11 -3 19 -4 26 -4c22 0 37 11 46 34h43z" />
    <glyph glyph-name="macron" unicode="&#xaf;" 
d="M118 652v68h264v-68h-264z" />
    <glyph glyph-name="breve" unicode="&#x2d8;" 
d="M108 759h53c3 -47 31 -68 89 -68c57 0 86 21 89 68h53c-7 -94 -51 -136 -142 -136s-135 41 -142 136z" />
    <glyph glyph-name="dotaccent" unicode="&#x2d9;" 
d="M203 632v108h94v-108h-94z" />
    <glyph glyph-name="dieresis" unicode="&#xa8;" 
d="M118 635v102h90v-102h-90zM292 635v102h90v-102h-90z" />
    <glyph glyph-name="ring" unicode="&#x2da;" 
d="M127 720c0 69 54 124 123 124s124 -55 124 -124s-55 -123 -124 -123s-123 54 -123 123zM184 720c0 -37 29 -66 66 -66c36 0 66 29 66 66c0 36 -30 66 -66 66c-37 0 -66 -29 -66 -66z" />
    <glyph glyph-name="cedilla" unicode="&#xb8;" 
d="M125 -208v49c59 -14 99 -19 120 -19c39 0 59 13 59 40c0 29 -21 42 -65 42c-8 0 -16 0 -26 -1v97h37v-50h14c72 0 109 -31 109 -88c0 -59 -42 -92 -122 -92c-31 0 -74 7 -126 22z" />
    <glyph glyph-name="hungarumlaut" unicode="&#x2dd;" 
d="M152 606l67 170h87l-107 -170h-47zM278 606l81 170h86l-120 -170h-47z" />
    <glyph glyph-name="ogonek" unicode="&#x2db;" 
d="M297 0c-44 -39 -67 -73 -67 -108c0 -29 13 -38 47 -38h41v-70h-42c-73 0 -110 27 -110 82c0 46 31 86 91 134h40z" />
    <glyph glyph-name="caron" unicode="&#x2c7;" 
d="M106 776h59l85 -111l84 111h60l-96 -170h-96z" />
    <glyph glyph-name="emdash" unicode="&#x2014;" horiz-adv-x="1000" 
d="M0 233v70h1000v-70h-1000z" />
    <glyph glyph-name="AE" unicode="&#xc6;" horiz-adv-x="840" 
d="M407 198h-245l-108 -198h-114l394 711h442v-95h-267v-212h267v-93h-267v-213h267v-98h-369v198zM407 296v320h-16l-174 -320h190z" />
    <glyph glyph-name="ordfeminine" unicode="&#xaa;" horiz-adv-x="483" 
d="M368 335v46c-37 -36 -84 -54 -135 -54c-122 0 -210 85 -210 198c0 52 20 101 57 138c41 39 88 58 149 58c55 0 101 -19 139 -56v46h74v-376h-74zM98 525c0 -78 63 -134 139 -134c71 0 135 59 135 129c0 77 -64 135 -136 135c-75 0 -138 -56 -138 -130z" />
    <glyph glyph-name="Lslash" unicode="&#x141;" horiz-adv-x="431" 
d="M410 0h-336v248l-74 -51v93l74 51v370h102v-305l117 82v-93l-117 -81v-216h234v-98z" />
    <glyph glyph-name="Oslash" unicode="&#xd8;" horiz-adv-x="787" 
d="M186 194l336 391c-41 25 -83 37 -131 37c-142 0 -255 -118 -255 -271c0 -57 16 -108 50 -157zM586 528l-337 -395c46 -30 93 -45 142 -45c147 0 259 118 259 273c0 63 -22 120 -64 167zM591 666l94 108l65 -53l-94 -111c68 -69 100 -150 100 -250
c0 -102 -32 -187 -94 -254c-74 -80 -166 -120 -277 -120c-76 0 -141 21 -204 67l-109 -126l-65 57l109 129c-58 74 -86 154 -86 247c0 99 38 189 111 262c68 68 152 102 251 102c76 0 143 -19 199 -58z" />
    <glyph glyph-name="OE" unicode="&#x152;" horiz-adv-x="1064" 
d="M134 359c0 -75 26 -143 70 -191c48 -51 113 -80 176 -80c142 0 251 117 251 273c0 65 -23 126 -67 178c-51 55 -110 83 -184 83c-65 0 -124 -26 -170 -74c-48 -51 -76 -120 -76 -189zM1000 0h-369v92c-67 -72 -148 -106 -251 -106s-191 41 -261 122
c-58 67 -89 153 -89 252c0 100 37 189 108 262c66 67 148 103 243 103c101 0 179 -32 250 -106v92h369v-95h-266v-212h266v-93h-266v-213h266v-98z" />
    <glyph glyph-name="ordmasculine" unicode="&#xba;" horiz-adv-x="455" 
d="M20 523c0 53 19 100 57 137c40 40 93 63 147 63c59 0 109 -20 150 -58c39 -38 61 -87 61 -138s-21 -102 -56 -139c-41 -41 -92 -63 -151 -63c-58 0 -109 19 -148 58c-39 37 -60 89 -60 140zM95 523c0 -75 57 -131 133 -131c74 0 132 55 132 132c0 78 -58 132 -133 132
c-72 0 -132 -55 -132 -133z" />
    <glyph glyph-name="ae" unicode="&#xe6;" horiz-adv-x="1070" 
d="M578 0h-87v66c-50 -52 -112 -80 -180 -80c-163 0 -281 124 -281 285c0 75 27 145 77 197c54 57 117 85 198 85c73 0 135 -28 187 -81v65h86v-61c56 52 117 77 190 77c90 0 174 -46 227 -125c32 -49 46 -106 46 -180v-15h-451c16 -91 87 -152 175 -152c64 0 120 33 151 89
h108c-50 -120 -142 -184 -258 -184c-74 0 -136 24 -188 74v-60zM130 272c0 -112 85 -191 186 -191c94 0 180 84 180 184c0 109 -86 194 -182 194c-100 0 -184 -82 -184 -187zM938 320c-24 88 -86 139 -169 139c-84 0 -151 -53 -174 -139h343z" />
    <glyph glyph-name="dotlessi" unicode="&#x131;" horiz-adv-x="211" 
d="M57 0v537h96v-537h-96z" />
    <glyph glyph-name="lslash" unicode="&#x142;" horiz-adv-x="238" 
d="M71 0v277l-71 -49v92l71 49v342h96v-287l71 51v-92l-71 -50v-333h-96z" />
    <glyph glyph-name="oslash" unicode="&#xf8;" horiz-adv-x="606" 
d="M451 508l79 96l61 -46l-81 -101c42 -49 71 -109 71 -183s-28 -147 -75 -199c-54 -60 -123 -91 -205 -91c-53 0 -101 15 -147 44l-79 -95l-59 52l79 96c-46 57 -68 118 -68 186c0 76 26 143 76 196c55 59 124 89 200 89c54 0 104 -15 148 -44zM447 382l-230 -280
c26 -15 53 -23 83 -23c105 0 181 77 181 194c0 39 -12 75 -34 109zM159 157l230 277c-29 15 -57 23 -85 23c-97 0 -177 -79 -177 -190c0 -40 11 -75 32 -110z" />
    <glyph glyph-name="oe" unicode="&#x153;" horiz-adv-x="1056" 
d="M528 103c-57 -78 -132 -117 -223 -117c-80 0 -145 27 -198 83c-51 53 -80 126 -80 198c0 76 26 143 76 197c54 58 123 89 197 89c94 0 174 -42 228 -119c58 78 131 119 220 119c164 0 280 -121 280 -306v-14h-451c16 -93 87 -153 175 -153c64 0 120 32 151 88h108
c-52 -121 -138 -182 -258 -182c-98 0 -170 37 -225 117zM127 268c0 -108 77 -188 178 -188c98 0 176 79 176 189c0 111 -78 190 -177 190c-97 0 -177 -80 -177 -191zM923 320c-24 87 -86 139 -169 139c-84 0 -151 -54 -174 -139h343z" />
    <glyph glyph-name="germandbls" unicode="&#xdf;" horiz-adv-x="586" 
d="M56 473c0 166 63 248 201 248c125 0 206 -82 206 -196c0 -60 -23 -106 -64 -127c99 -27 156 -93 156 -194c0 -123 -89 -218 -209 -218c-91 0 -157 43 -196 128v-114h-94v473zM150 477v-291h77c14 -68 58 -107 112 -107c64 0 119 56 119 120c0 84 -56 125 -169 125
c-13 0 -27 -1 -41 -2v84h2c72 0 115 43 115 113c0 66 -47 111 -105 111c-81 0 -110 -49 -110 -153z" />
    <glyph glyph-name="Aacute" unicode="&#xc1;" horiz-adv-x="602" 
d="M158 207l-80 -207h-109l278 711h100l278 -711h-113l-78 207h-276zM397 307l-100 270l-102 -270h202zM227 777l100 170h98l-139 -170h-59z" />
    <glyph glyph-name="Acircumflex" unicode="&#xc2;" horiz-adv-x="602" 
d="M158 207l-80 -207h-109l278 711h100l278 -711h-113l-78 207h-276zM397 307l-100 270l-102 -270h202zM153 777l96 170h96l96 -170h-60l-84 112l-85 -112h-59z" />
    <glyph glyph-name="Adieresis" unicode="&#xc4;" horiz-adv-x="602" 
d="M158 207l-80 -207h-109l278 711h100l278 -711h-113l-78 207h-276zM397 307l-100 270l-102 -270h202zM165 806v102h90v-102h-90zM339 806v102h90v-102h-90z" />
    <glyph glyph-name="Agrave" unicode="&#xc0;" horiz-adv-x="602" 
d="M158 207l-80 -207h-109l278 711h100l278 -711h-113l-78 207h-276zM397 307l-100 270l-102 -270h202zM367 777h-59l-139 170h98z" />
    <glyph glyph-name="Aring" unicode="&#xc5;" horiz-adv-x="602" 
d="M158 207l-80 -207h-109l277 707h101l278 -707h-115l-76 207h-276zM397 307l-101 270l-101 -270h202zM179 849c0 64 51 114 114 114s114 -51 114 -114s-51 -114 -114 -114c-64 0 -114 51 -114 114zM237 850c0 -32 25 -58 57 -58s59 26 59 58c0 31 -27 59 -59 59
c-31 0 -57 -27 -57 -59z" />
    <glyph glyph-name="Atilde" unicode="&#xc3;" horiz-adv-x="602" 
d="M158 207l-80 -207h-109l278 711h100l278 -711h-113l-78 207h-276zM397 307l-100 270l-102 -270h202zM440 912c-13 -66 -47 -101 -96 -101c-10 0 -21 2 -32 5l-47 13c-10 3 -18 4 -24 4c-20 0 -35 -11 -44 -34h-43c12 66 46 101 94 101c10 0 20 -1 29 -4l48 -14
c11 -3 19 -4 26 -4c22 0 37 11 46 34h43z" />
    <glyph glyph-name="Ccedilla" unicode="&#xc7;" horiz-adv-x="752" 
d="M709 178c-62 -124 -174 -192 -318 -192c-106 0 -197 41 -269 122c-60 67 -92 154 -92 252c0 99 38 189 111 262c68 67 153 103 251 103c146 0 261 -72 317 -198h-121c-46 63 -113 95 -197 95c-67 0 -129 -26 -176 -74c-50 -51 -78 -121 -78 -189c0 -75 26 -143 72 -191
c49 -51 116 -80 182 -80c82 0 149 32 191 90h127zM261 -208v49c59 -14 99 -19 120 -19c39 0 59 13 59 40c0 29 -21 42 -65 42c-8 0 -16 0 -26 -1v97h37v-50h14c72 0 109 -31 109 -88c0 -59 -42 -92 -122 -92c-31 0 -74 7 -126 22z" />
    <glyph glyph-name="Eacute" unicode="&#xc9;" horiz-adv-x="495" 
d="M431 0h-369v711h369v-95h-266v-212h266v-93h-266v-213h266v-98zM176 777l100 170h98l-139 -170h-59z" />
    <glyph glyph-name="Ecircumflex" unicode="&#xca;" horiz-adv-x="495" 
d="M431 0h-369v711h369v-95h-266v-212h266v-93h-266v-213h266v-98zM102 777l96 170h96l96 -170h-60l-84 112l-85 -112h-59z" />
    <glyph glyph-name="Edieresis" unicode="&#xcb;" horiz-adv-x="495" 
d="M431 0h-369v711h369v-95h-266v-212h266v-93h-266v-213h266v-98zM114 806v102h90v-102h-90zM288 806v102h90v-102h-90z" />
    <glyph glyph-name="Egrave" unicode="&#xc8;" horiz-adv-x="495" 
d="M431 0h-369v711h369v-95h-266v-212h266v-93h-266v-213h266v-98zM316 777h-59l-139 170h98z" />
    <glyph glyph-name="Iacute" unicode="&#xcd;" horiz-adv-x="227" 
d="M165 0h-103v711h103v-711zM44 777l100 170h98l-139 -170h-59z" />
    <glyph glyph-name="Icircumflex" unicode="&#xce;" horiz-adv-x="227" 
d="M165 0h-103v711h103v-711zM-30 777l96 170h96l96 -170h-60l-84 112l-85 -112h-59z" />
    <glyph glyph-name="Idieresis" unicode="&#xcf;" horiz-adv-x="227" 
d="M165 0h-103v711h103v-711zM-18 806v102h90v-102h-90zM156 806v102h90v-102h-90z" />
    <glyph glyph-name="Igrave" unicode="&#xcc;" horiz-adv-x="227" 
d="M165 0h-103v711h103v-711zM184 777h-59l-139 170h98z" />
    <glyph glyph-name="Ntilde" unicode="&#xd1;" horiz-adv-x="676" 
d="M165 0h-103v711h106l349 -538l-5 538h102v-711h-99l-357 554zM481 912c-13 -66 -47 -101 -96 -101c-10 0 -21 2 -32 5l-47 13c-10 3 -18 4 -24 4c-20 0 -35 -11 -44 -34h-43c12 66 46 101 94 101c10 0 20 -1 29 -4l48 -14c11 -3 19 -4 26 -4c22 0 37 11 46 34h43z" />
    <glyph glyph-name="Oacute" unicode="&#xd3;" horiz-adv-x="787" 
d="M30 360c0 99 38 190 111 262c68 67 153 103 251 103c100 0 185 -35 255 -104c72 -71 109 -160 109 -261c0 -102 -32 -187 -94 -254c-73 -79 -164 -120 -271 -120c-106 0 -197 41 -269 122c-60 67 -92 154 -92 252zM137 359c0 -75 26 -143 72 -191c49 -51 116 -80 182 -80
c147 0 259 118 259 273c0 65 -24 126 -70 176c-53 57 -113 85 -189 85c-67 0 -129 -26 -176 -74c-50 -51 -78 -121 -78 -189zM324 777l100 170h98l-139 -170h-59z" />
    <glyph glyph-name="Ocircumflex" unicode="&#xd4;" horiz-adv-x="787" 
d="M30 360c0 99 38 190 111 262c68 67 153 103 251 103c100 0 185 -35 255 -104c72 -71 109 -160 109 -261c0 -102 -32 -187 -94 -254c-73 -79 -164 -120 -271 -120c-106 0 -197 41 -269 122c-60 67 -92 154 -92 252zM137 359c0 -75 26 -143 72 -191c49 -51 116 -80 182 -80
c147 0 259 118 259 273c0 65 -24 126 -70 176c-53 57 -113 85 -189 85c-67 0 -129 -26 -176 -74c-50 -51 -78 -121 -78 -189zM250 777l96 170h96l96 -170h-60l-84 112l-85 -112h-59z" />
    <glyph glyph-name="Odieresis" unicode="&#xd6;" horiz-adv-x="787" 
d="M30 360c0 99 38 190 111 262c68 67 153 103 251 103c100 0 185 -35 255 -104c72 -71 109 -160 109 -261c0 -102 -32 -187 -94 -254c-73 -79 -164 -120 -271 -120c-106 0 -197 41 -269 122c-60 67 -92 154 -92 252zM137 359c0 -75 26 -143 72 -191c49 -51 116 -80 182 -80
c147 0 259 118 259 273c0 65 -24 126 -70 176c-53 57 -113 85 -189 85c-67 0 -129 -26 -176 -74c-50 -51 -78 -121 -78 -189zM262 806v102h90v-102h-90zM436 806v102h90v-102h-90z" />
    <glyph glyph-name="Ograve" unicode="&#xd2;" horiz-adv-x="787" 
d="M30 360c0 99 38 190 111 262c68 67 153 103 251 103c100 0 185 -35 255 -104c72 -71 109 -160 109 -261c0 -102 -32 -187 -94 -254c-73 -79 -164 -120 -271 -120c-106 0 -197 41 -269 122c-60 67 -92 154 -92 252zM137 359c0 -75 26 -143 72 -191c49 -51 116 -80 182 -80
c147 0 259 118 259 273c0 65 -24 126 -70 176c-53 57 -113 85 -189 85c-67 0 -129 -26 -176 -74c-50 -51 -78 -121 -78 -189zM464 777h-59l-139 170h98z" />
    <glyph glyph-name="Otilde" unicode="&#xd5;" horiz-adv-x="787" 
d="M30 360c0 99 38 190 111 262c68 67 153 103 251 103c100 0 185 -35 255 -104c72 -71 109 -160 109 -261c0 -102 -32 -187 -94 -254c-73 -79 -164 -120 -271 -120c-106 0 -197 41 -269 122c-60 67 -92 154 -92 252zM137 359c0 -75 26 -143 72 -191c49 -51 116 -80 182 -80
c147 0 259 118 259 273c0 65 -24 126 -70 176c-53 57 -113 85 -189 85c-67 0 -129 -26 -176 -74c-50 -51 -78 -121 -78 -189zM537 912c-13 -66 -47 -101 -96 -101c-10 0 -21 2 -32 5l-47 13c-10 3 -18 4 -24 4c-20 0 -35 -11 -44 -34h-43c12 66 46 101 94 101
c10 0 20 -1 29 -4l48 -14c11 -3 19 -4 26 -4c22 0 37 11 46 34h43z" />
    <glyph glyph-name="Scaron" unicode="&#x160;" horiz-adv-x="475" 
d="M24 205h93c3 -75 48 -121 111 -121c71 0 117 47 117 121c0 79 -43 100 -121 124c-51 14 -99 22 -143 82c-24 32 -36 68 -36 109c0 122 79 204 196 204c108 0 180 -70 187 -189h-96c-3 57 -42 95 -94 95c-58 0 -96 -44 -96 -104c0 -22 7 -41 20 -57c30 -35 81 -37 139 -57
c93 -35 143 -103 143 -197c0 -136 -84 -229 -214 -229c-120 0 -204 86 -206 219zM94 947h59l85 -111l84 111h60l-96 -170h-96z" />
    <glyph glyph-name="Uacute" unicode="&#xda;" horiz-adv-x="565" 
d="M55 711h103v-452c0 -117 26 -172 127 -172c95 0 121 55 121 172v452h103v-451c0 -74 -4 -131 -35 -178c-43 -65 -104 -96 -187 -96c-89 0 -150 28 -196 95c-36 53 -36 110 -36 179v451zM213 777l100 170h98l-139 -170h-59z" />
    <glyph glyph-name="Ucircumflex" unicode="&#xdb;" horiz-adv-x="565" 
d="M55 711h103v-452c0 -117 26 -172 127 -172c95 0 121 55 121 172v452h103v-451c0 -74 -4 -131 -35 -178c-43 -65 -104 -96 -187 -96c-89 0 -150 28 -196 95c-36 53 -36 110 -36 179v451zM139 777l96 170h96l96 -170h-60l-84 112l-85 -112h-59z" />
    <glyph glyph-name="Udieresis" unicode="&#xdc;" horiz-adv-x="565" 
d="M55 711h103v-452c0 -117 26 -172 127 -172c95 0 121 55 121 172v452h103v-451c0 -74 -4 -131 -35 -178c-43 -65 -104 -96 -187 -96c-89 0 -150 28 -196 95c-36 53 -36 110 -36 179v451zM151 806v102h90v-102h-90zM325 806v102h90v-102h-90z" />
    <glyph glyph-name="Ugrave" unicode="&#xd9;" horiz-adv-x="565" 
d="M55 711h103v-452c0 -117 26 -172 127 -172c95 0 121 55 121 172v452h103v-451c0 -74 -4 -131 -35 -178c-43 -65 -104 -96 -187 -96c-89 0 -150 28 -196 95c-36 53 -36 110 -36 179v451zM353 777h-59l-139 170h98z" />
    <glyph glyph-name="Ydieresis" unicode="&#x178;" horiz-adv-x="493" 
d="M297 256v-256h-103v262l-218 449h115l156 -342l156 342h114zM115 806v102h90v-102h-90zM289 806v102h90v-102h-90z" />
    <glyph glyph-name="Zcaron" unicode="&#x17d;" horiz-adv-x="475" 
d="M455 0h-436v101l311 510h-291v100h410v-90l-322 -523h328v-98zM94 947h59l85 -111l84 111h60l-96 -170h-96z" />
    <glyph glyph-name="aacute" unicode="&#xe1;" horiz-adv-x="644" 
d="M491 0v66c-50 -52 -112 -78 -180 -78c-163 0 -281 122 -281 283c0 75 27 145 77 197c54 57 117 83 198 83c73 0 135 -26 186 -79v65h98v-537h-98zM130 272c0 -112 85 -192 186 -192c94 0 180 85 180 185c0 109 -86 192 -182 192c-100 0 -184 -80 -184 -185zM276 606
l100 170h98l-139 -170h-59z" />
    <glyph glyph-name="acircumflex" unicode="&#xe2;" horiz-adv-x="644" 
d="M491 0v66c-50 -52 -112 -78 -180 -78c-163 0 -281 122 -281 283c0 75 27 145 77 197c54 57 117 83 198 83c73 0 135 -26 186 -79v65h98v-537h-98zM130 272c0 -112 85 -192 186 -192c94 0 180 85 180 185c0 109 -86 192 -182 192c-100 0 -184 -80 -184 -185zM202 606
l96 170h96l96 -170h-60l-84 112l-85 -112h-59z" />
    <glyph glyph-name="adieresis" unicode="&#xe4;" horiz-adv-x="644" 
d="M491 0v66c-50 -52 -112 -78 -180 -78c-163 0 -281 122 -281 283c0 75 27 145 77 197c54 57 117 83 198 83c73 0 135 -26 186 -79v65h98v-537h-98zM130 272c0 -112 85 -192 186 -192c94 0 180 85 180 185c0 109 -86 192 -182 192c-100 0 -184 -80 -184 -185zM214 635v102
h90v-102h-90zM388 635v102h90v-102h-90z" />
    <glyph glyph-name="agrave" unicode="&#xe0;" horiz-adv-x="644" 
d="M491 0v66c-50 -52 -112 -78 -180 -78c-163 0 -281 122 -281 283c0 75 27 145 77 197c54 57 117 83 198 83c73 0 135 -26 186 -79v65h98v-537h-98zM130 272c0 -112 85 -192 186 -192c94 0 180 85 180 185c0 109 -86 192 -182 192c-100 0 -184 -80 -184 -185zM416 606h-59
l-139 170h98z" />
    <glyph glyph-name="aring" unicode="&#xe5;" horiz-adv-x="644" 
d="M491 0v66c-50 -52 -112 -78 -180 -78c-163 0 -281 122 -281 283c0 75 27 145 77 197c54 57 117 83 198 83c73 0 135 -26 186 -79v65h98v-537h-98zM130 272c0 -112 85 -192 186 -192c94 0 180 85 180 185c0 109 -86 192 -182 192c-100 0 -184 -80 -184 -185zM234 692
c0 64 51 114 114 114s114 -51 114 -114s-51 -113 -114 -113c-64 0 -114 50 -114 113zM291 694c0 -32 26 -58 58 -58s58 26 58 58c0 31 -26 58 -58 58c-31 0 -58 -26 -58 -58z" />
    <glyph glyph-name="atilde" unicode="&#xe3;" horiz-adv-x="644" 
d="M491 0v66c-50 -52 -112 -78 -180 -78c-163 0 -281 122 -281 283c0 75 27 145 77 197c54 57 117 83 198 83c73 0 135 -26 186 -79v65h98v-537h-98zM130 272c0 -112 85 -192 186 -192c94 0 180 85 180 185c0 109 -86 192 -182 192c-100 0 -184 -80 -184 -185zM489 741
c-13 -66 -47 -101 -96 -101c-10 0 -21 2 -32 5l-47 13c-10 3 -18 4 -24 4c-20 0 -35 -11 -44 -34h-43c12 66 46 101 94 101c10 0 20 -1 29 -4l48 -14c11 -3 19 -4 26 -4c22 0 37 11 46 34h43z" />
    <glyph glyph-name="ccedilla" unicode="&#xe7;" horiz-adv-x="606" 
d="M567 183c-45 -129 -135 -197 -262 -197c-79 0 -144 27 -197 83c-51 53 -80 127 -80 199c0 75 26 141 76 195c55 59 125 90 204 90c121 0 217 -69 259 -194h-106c-34 66 -87 98 -161 98c-94 0 -172 -80 -172 -188s77 -188 177 -188c68 0 125 37 156 102h106zM178 -208v49
c59 -14 99 -19 120 -19c39 0 59 13 59 40c0 29 -21 42 -65 42c-8 0 -16 0 -26 -1v97h37v-50h14c72 0 109 -31 109 -88c0 -59 -42 -92 -122 -92c-31 0 -74 7 -126 22z" />
    <glyph glyph-name="eacute" unicode="&#xe9;" horiz-adv-x="608" 
d="M129 233c16 -91 88 -151 176 -151c64 0 119 32 150 88h109c-50 -120 -142 -184 -259 -184c-79 0 -145 28 -198 84c-51 53 -80 127 -80 199c0 76 26 142 76 196c54 59 122 88 200 88c94 0 179 -45 232 -125c32 -49 46 -106 46 -180v-15h-452zM475 320
c-24 88 -86 139 -169 139c-84 0 -151 -53 -174 -139h343zM239 606l100 170h98l-139 -170h-59z" />
    <glyph glyph-name="ecircumflex" unicode="&#xea;" horiz-adv-x="608" 
d="M129 233c16 -91 88 -151 176 -151c64 0 119 32 150 88h109c-50 -120 -142 -184 -259 -184c-79 0 -145 28 -198 84c-51 53 -80 127 -80 199c0 76 26 142 76 196c54 59 122 88 200 88c94 0 179 -45 232 -125c32 -49 46 -106 46 -180v-15h-452zM475 320
c-24 88 -86 139 -169 139c-84 0 -151 -53 -174 -139h343zM165 606l96 170h96l96 -170h-60l-84 112l-85 -112h-59z" />
    <glyph glyph-name="edieresis" unicode="&#xeb;" horiz-adv-x="608" 
d="M129 233c16 -91 88 -151 176 -151c64 0 119 32 150 88h109c-50 -120 -142 -184 -259 -184c-79 0 -145 28 -198 84c-51 53 -80 127 -80 199c0 76 26 142 76 196c54 59 122 88 200 88c94 0 179 -45 232 -125c32 -49 46 -106 46 -180v-15h-452zM475 320
c-24 88 -86 139 -169 139c-84 0 -151 -53 -174 -139h343zM177 635v102h90v-102h-90zM351 635v102h90v-102h-90z" />
    <glyph glyph-name="egrave" unicode="&#xe8;" horiz-adv-x="608" 
d="M129 233c16 -91 88 -151 176 -151c64 0 119 32 150 88h109c-50 -120 -142 -184 -259 -184c-79 0 -145 28 -198 84c-51 53 -80 127 -80 199c0 76 26 142 76 196c54 59 122 88 200 88c94 0 179 -45 232 -125c32 -49 46 -106 46 -180v-15h-452zM475 320
c-24 88 -86 139 -169 139c-84 0 -151 -53 -174 -139h343zM379 606h-59l-139 170h98z" />
    <glyph glyph-name="iacute" unicode="&#xed;" horiz-adv-x="211" 
d="M57 0v537h96v-537h-96zM36 606l100 170h98l-139 -170h-59z" />
    <glyph glyph-name="icircumflex" unicode="&#xee;" horiz-adv-x="211" 
d="M57 0v537h96v-537h-96zM-38 606l96 170h96l96 -170h-60l-84 112l-85 -112h-59z" />
    <glyph glyph-name="idieresis" unicode="&#xef;" horiz-adv-x="211" 
d="M57 0v537h96v-537h-96zM-26 635v102h90v-102h-90zM148 635v102h90v-102h-90z" />
    <glyph glyph-name="igrave" unicode="&#xec;" horiz-adv-x="211" 
d="M57 0v537h96v-537h-96zM176 606h-59l-139 170h98z" />
    <glyph glyph-name="ntilde" unicode="&#xf1;" horiz-adv-x="574" 
d="M154 0h-97v537h93v-61c41 49 88 70 150 70c139 0 218 -84 218 -240v-306h-97v285c0 113 -41 168 -130 168c-103 0 -137 -70 -137 -209v-244zM436 741c-13 -66 -47 -101 -96 -101c-10 0 -21 2 -32 5l-47 13c-10 3 -18 4 -24 4c-20 0 -35 -11 -44 -34h-43
c12 66 46 101 94 101c10 0 20 -1 29 -4l48 -14c11 -3 19 -4 26 -4c22 0 37 11 46 34h43z" />
    <glyph glyph-name="oacute" unicode="&#xf3;" horiz-adv-x="606" 
d="M26 268c0 76 26 143 76 196c54 58 124 90 197 90c78 0 145 -28 199 -83c53 -54 82 -124 82 -196c0 -74 -28 -147 -75 -199c-54 -59 -123 -91 -201 -91s-145 28 -198 84c-51 53 -80 127 -80 199zM126 269c0 -108 77 -188 178 -188c98 0 176 79 176 189
c0 111 -78 188 -177 188c-97 0 -177 -78 -177 -189zM235 606l100 170h98l-139 -170h-59z" />
    <glyph glyph-name="ocircumflex" unicode="&#xf4;" horiz-adv-x="606" 
d="M26 268c0 76 26 143 76 196c54 58 124 90 197 90c78 0 145 -28 199 -83c53 -54 82 -124 82 -196c0 -74 -28 -147 -75 -199c-54 -59 -123 -91 -201 -91s-145 28 -198 84c-51 53 -80 127 -80 199zM126 269c0 -108 77 -188 178 -188c98 0 176 79 176 189
c0 111 -78 188 -177 188c-97 0 -177 -78 -177 -189zM161 606l96 170h96l96 -170h-60l-84 112l-85 -112h-59z" />
    <glyph glyph-name="odieresis" unicode="&#xf6;" horiz-adv-x="606" 
d="M26 268c0 76 26 143 76 196c54 58 124 90 197 90c78 0 145 -28 199 -83c53 -54 82 -124 82 -196c0 -74 -28 -147 -75 -199c-54 -59 -123 -91 -201 -91s-145 28 -198 84c-51 53 -80 127 -80 199zM126 269c0 -108 77 -188 178 -188c98 0 176 79 176 189
c0 111 -78 188 -177 188c-97 0 -177 -78 -177 -189zM173 635v102h90v-102h-90zM347 635v102h90v-102h-90z" />
    <glyph glyph-name="ograve" unicode="&#xf2;" horiz-adv-x="606" 
d="M26 268c0 76 26 143 76 196c54 58 124 90 197 90c78 0 145 -28 199 -83c53 -54 82 -124 82 -196c0 -74 -28 -147 -75 -199c-54 -59 -123 -91 -201 -91s-145 28 -198 84c-51 53 -80 127 -80 199zM126 269c0 -108 77 -188 178 -188c98 0 176 79 176 189
c0 111 -78 188 -177 188c-97 0 -177 -78 -177 -189zM375 606h-59l-139 170h98z" />
    <glyph glyph-name="otilde" unicode="&#xf5;" horiz-adv-x="606" 
d="M26 268c0 76 26 143 76 196c54 58 124 90 197 90c78 0 145 -28 199 -83c53 -54 82 -124 82 -196c0 -74 -28 -147 -75 -199c-54 -59 -123 -91 -201 -91s-145 28 -198 84c-51 53 -80 127 -80 199zM126 269c0 -108 77 -188 178 -188c98 0 176 79 176 189
c0 111 -78 188 -177 188c-97 0 -177 -78 -177 -189zM448 741c-13 -66 -47 -101 -96 -101c-10 0 -21 2 -32 5l-47 13c-10 3 -18 4 -24 4c-20 0 -35 -11 -44 -34h-43c12 66 46 101 94 101c10 0 20 -1 29 -4l48 -14c11 -3 19 -4 26 -4c22 0 37 11 46 34h43z" />
    <glyph glyph-name="scaron" unicode="&#x161;" horiz-adv-x="389" 
d="M20 174h91c0 -59 37 -98 83 -98c45 0 77 31 77 74c0 39 -21 63 -65 81c-48 19 -85 30 -106 47c-38 30 -56 68 -56 119c0 87 69 157 157 157c92 0 149 -56 154 -153h-93c-3 40 -27 63 -65 63c-35 0 -61 -27 -61 -62c0 -55 44 -59 113 -87c81 -33 114 -78 114 -161
c0 -97 -73 -168 -172 -168s-165 70 -171 188zM51 776h59l85 -111l84 111h60l-96 -170h-96z" />
    <glyph glyph-name="uacute" unicode="&#xfa;" horiz-adv-x="565" 
d="M505 0h-93v60c-38 -48 -85 -72 -145 -72c-133 0 -213 85 -213 240v309h97v-281c0 -116 41 -174 123 -174c51 0 92 25 115 69c19 36 20 81 20 140v246h96v-537zM210 606l100 170h98l-139 -170h-59z" />
    <glyph glyph-name="ucircumflex" unicode="&#xfb;" horiz-adv-x="565" 
d="M505 0h-93v60c-38 -48 -85 -72 -145 -72c-133 0 -213 85 -213 240v309h97v-281c0 -116 41 -174 123 -174c51 0 92 25 115 69c19 36 20 81 20 140v246h96v-537zM136 606l96 170h96l96 -170h-60l-84 112l-85 -112h-59z" />
    <glyph glyph-name="udieresis" unicode="&#xfc;" horiz-adv-x="565" 
d="M505 0h-93v60c-38 -48 -85 -72 -145 -72c-133 0 -213 85 -213 240v309h97v-281c0 -116 41 -174 123 -174c51 0 92 25 115 69c19 36 20 81 20 140v246h96v-537zM148 635v102h90v-102h-90zM322 635v102h90v-102h-90z" />
    <glyph glyph-name="ugrave" unicode="&#xf9;" horiz-adv-x="565" 
d="M505 0h-93v60c-38 -48 -85 -72 -145 -72c-133 0 -213 85 -213 240v309h97v-281c0 -116 41 -174 123 -174c51 0 92 25 115 69c19 36 20 81 20 140v246h96v-537zM350 606h-59l-139 170h98z" />
    <glyph glyph-name="ydieresis" unicode="&#xff;" horiz-adv-x="512" 
d="M3 537h104l145 -400l157 400h104l-289 -711h-102l75 189zM124 635v102h90v-102h-90zM298 635v102h90v-102h-90z" />
    <glyph glyph-name="zcaron" unicode="&#x17e;" horiz-adv-x="403" 
d="M381 0h-371v78l259 371h-228v88h325v-99l-242 -347h257v-91zM58 776h59l85 -111l84 111h60l-96 -170h-96z" />
    <glyph glyph-name="trademark" unicode="&#x2122;" horiz-adv-x="833" 
d="M339 712v-39h-84v-224h-53v224h-84v39h221zM470 712l74 -188l69 188h73v-263h-48v217l-81 -217h-27l-85 217v-217h-48v263h73z" />
    <glyph glyph-name="copyright" unicode="&#xa9;" horiz-adv-x="833" 
d="M416 715c98 0 187 -36 256 -105c67 -67 105 -158 105 -255c0 -98 -37 -186 -104 -252c-71 -69 -162 -108 -257 -108s-184 38 -253 107s-106 158 -106 253s37 185 107 256c67 67 155 104 252 104zM729 355c0 85 -32 163 -90 221c-60 60 -137 92 -222 92s-161 -32 -219 -90
c-61 -61 -94 -141 -94 -223s33 -160 93 -220s137 -92 220 -92c82 0 160 33 222 93c58 57 90 133 90 219zM514 443c-8 50 -44 78 -100 78c-66 0 -110 -59 -110 -166c0 -104 44 -162 115 -162c53 0 91 32 100 86h71c-6 -85 -76 -143 -174 -143c-117 0 -190 81 -190 222
c0 132 79 217 193 217c93 0 160 -54 167 -132h-72z" />
    <glyph glyph-name="logicalnot" unicode="&#xac;" horiz-adv-x="833" 
d="M709 420v-245h-67v177h-518v68h585z" />
    <glyph glyph-name="registered" unicode="&#xae;" horiz-adv-x="833" 
d="M416 715c98 0 188 -37 257 -107c66 -67 104 -157 104 -253c0 -99 -37 -187 -105 -253c-71 -69 -162 -107 -256 -107c-96 0 -185 38 -254 108c-68 69 -105 157 -105 252s39 187 109 258c66 67 153 102 250 102zM729 352c0 87 -31 165 -89 223c-60 61 -137 93 -223 93
c-84 0 -161 -31 -218 -89c-61 -62 -95 -142 -95 -224s33 -159 92 -219s138 -93 218 -93c85 0 162 32 224 92c59 57 91 134 91 217zM426 566c114 0 170 -38 170 -112c0 -58 -34 -98 -93 -110l91 -186h-86l-83 174h-76v-174h-77v408h154zM412 516h-63v-135h65
c70 0 103 17 103 65c0 50 -33 70 -105 70z" />
    <glyph glyph-name="minus" unicode="&#x2212;" horiz-adv-x="833" 
d="M709 333v-69h-585v69h585z" />
    <glyph glyph-name="Eth" unicode="&#xd0;" horiz-adv-x="687" 
d="M169 95h125c160 0 257 100 257 257c0 161 -101 262 -277 262h-105v-212h166v-86h-166v-221zM269 0h-200v316h-74v86h74v309h228c216 0 357 -147 357 -358c0 -122 -50 -224 -142 -290c-76 -55 -149 -63 -243 -63z" />
    <glyph glyph-name="Thorn" unicode="&#xde;" horiz-adv-x="514" 
d="M164 154v-154h-102v711h102v-132h63c70 0 124 -2 170 -29c59 -34 97 -104 97 -179c0 -127 -91 -217 -248 -217h-82zM164 249h75c101 0 151 32 151 116c0 82 -49 119 -148 119h-78v-235z" />
    <glyph glyph-name="Yacute" unicode="&#xdd;" horiz-adv-x="493" 
d="M297 256v-256h-103v262l-218 449h115l156 -342l156 342h114zM177 777l100 170h98l-139 -170h-59z" />
    <glyph glyph-name="brokenbar" unicode="&#xa6;" 
d="M287 699v-370h-73v370h73zM287 199v-370h-73v370h73z" />
    <glyph glyph-name="degree" unicode="&#xb0;" horiz-adv-x="329" 
d="M165 711c77 0 140 -63 140 -141c0 -76 -61 -140 -141 -140c-79 0 -140 62 -140 140c0 79 64 141 141 141zM259 571c0 52 -41 94 -94 94c-52 0 -95 -41 -95 -94s42 -96 95 -96c54 0 94 44 94 96z" />
    <glyph glyph-name="divide" unicode="&#xf7;" horiz-adv-x="833" 
d="M417 540c33 0 61 -28 61 -62c0 -33 -27 -61 -61 -61s-61 27 -61 61s28 62 61 62zM709 332v-68h-585v68h585zM417 179c33 0 61 -27 61 -61c0 -33 -27 -61 -61 -61c-35 0 -61 27 -61 61s28 61 61 61z" />
    <glyph glyph-name="eth" unicode="&#xf0;" horiz-adv-x="606" 
d="M426 454c-26 51 -55 91 -89 121l-142 -52l-22 56l108 41c-16 11 -38 22 -64 35l29 62c48 -21 88 -43 119 -66l143 53l26 -57l-110 -42c87 -93 130 -201 130 -325c0 -183 -106 -294 -250 -294c-142 0 -250 114 -250 257c0 65 24 127 68 174c49 52 113 80 178 80
c47 0 88 -13 126 -43zM300 411c-83 0 -156 -70 -156 -170c0 -97 69 -169 158 -169c91 0 160 70 160 174c0 94 -69 165 -162 165z" />
    <glyph glyph-name="mu" unicode="&#x3bc;" horiz-adv-x="562" 
d="M188 523l-63 -293c-5 -22 -7 -43 -7 -65c0 -65 36 -101 98 -101c90 0 133 62 162 197l56 262h87l-76 -357c-6 -29 -11 -51 -11 -65c0 -24 10 -33 35 -33c5 0 10 0 16 1l-15 -70c-19 -4 -36 -5 -53 -5c-42 0 -61 18 -73 63c-29 -43 -73 -64 -132 -64c-53 0 -91 17 -125 57
l-54 -259h-88l155 732h88z" />
    <glyph glyph-name="multiply" unicode="&#xd7;" horiz-adv-x="833" 
d="M420 346l229 229l48 -48l-229 -229l229 -229l-48 -47l-229 228l-229 -228l-48 47l229 229l-229 229l48 48z" />
    <glyph glyph-name="onehalf" unicode="&#xbd;" horiz-adv-x="888" 
d="M219 313h-66v351h-78v47h144v-398zM623 725h70l-429 -739h-71zM848 0h-283v55l157 134c37 32 64 55 64 90c0 40 -33 72 -81 72c-49 0 -79 -29 -79 -79v-5h-61v1c0 84 59 137 145 137c79 0 140 -56 140 -123c0 -42 -22 -74 -65 -110l-140 -117h203v-55z" />
    <glyph glyph-name="onequarter" unicode="&#xbc;" horiz-adv-x="888" 
d="M219 313h-66v351h-78v47h144v-398zM623 725h70l-429 -739h-71zM751 120v196l-134 -196h134zM814 0h-63v69h-197v51l197 278h63v-278h45v-51h-45v-69z" />
    <glyph glyph-name="onesuperior" unicode="&#xb9;" horiz-adv-x="377" 
d="M229 284h-69v376h-82v51h151v-427z" />
    <glyph glyph-name="plusminus" unicode="&#xb1;" horiz-adv-x="833" 
d="M451 582v-166h258v-68h-258v-166h-69v166h-258v68h258v166h69zM709 83v-69h-585v69h585z" />
    <glyph glyph-name="thorn" unicode="&#xfe;" horiz-adv-x="644" 
d="M151 65v-239h-97v885h97l1 -240c49 52 112 78 180 78c77 0 144 -26 195 -74c54 -51 87 -128 87 -202c0 -165 -116 -287 -276 -287c-73 0 -135 26 -187 79zM328 457c-94 0 -180 -85 -180 -185c0 -109 85 -192 181 -192c100 0 184 80 184 185c0 112 -84 192 -185 192z" />
    <glyph glyph-name="threequarters" unicode="&#xbe;" horiz-adv-x="888" 
d="M32 435h61c1 -45 36 -76 81 -76c49 0 86 34 86 77c0 49 -34 78 -97 78c-5 0 -11 0 -16 -1v55c5 -1 10 -1 14 -1c46 0 69 17 69 50c0 29 -23 49 -52 49c-32 0 -53 -18 -55 -49h-59c3 62 49 102 116 102c64 0 112 -46 112 -99c0 -32 -14 -56 -44 -74c48 -17 75 -55 75 -106
c0 -75 -62 -135 -145 -135c-89 0 -144 48 -146 130zM623 725h70l-429 -739h-71zM751 120v196l-134 -196h134zM814 0h-63v69h-197v51l197 278h63v-278h45v-51h-45v-69z" />
    <glyph glyph-name="threesuperior" unicode="&#xb3;" horiz-adv-x="378" 
d="M34 415h63c2 -49 38 -82 85 -82c52 0 91 36 91 83c0 52 -37 83 -102 83h-17v58c5 -1 10 -1 14 -1c48 0 73 18 73 54c0 30 -24 52 -54 52c-35 0 -56 -19 -58 -52h-62c3 66 51 109 122 109c66 0 117 -49 117 -106c0 -34 -14 -60 -46 -79c50 -18 78 -59 78 -114
c0 -81 -65 -144 -152 -144c-92 0 -150 51 -152 139z" />
    <glyph glyph-name="twosuperior" unicode="&#xb2;" horiz-adv-x="378" 
d="M337 284h-297v59l164 144c39 34 67 58 67 96c0 43 -35 77 -85 77c-51 0 -82 -31 -82 -85v-5h-64v1c0 90 62 147 152 147c83 0 146 -60 146 -132c0 -45 -23 -79 -68 -118l-146 -125h213v-59z" />
    <glyph glyph-name="yacute" unicode="&#xfd;" horiz-adv-x="512" 
d="M3 537h104l145 -400l157 400h104l-289 -711h-102l75 189zM186 606l100 170h98l-139 -170h-59z" />
  </font>
</defs>
</svg>
