<?xml version="1.0" standalone="no"?>
<!DOCTYPE svg PUBLIC "-//W3C//DTD SVG 1.1//EN" "http://www.w3.org/Graphics/SVG/1.1/DTD/svg11.dtd" >
<svg xmlns="http://www.w3.org/2000/svg" width="100%" height="100%">
<metadata>
Created by FontXChange 20110222 at Tue Jan 19 14:55:48 2016
 By Jason Coe
copyright missing
</metadata>
<defs>
<font id="bmore-icons-Regular" horiz-adv-x="600" >
  <font-face 
    font-family="bmore"
    font-weight="400"
    font-stretch="normal"
    units-per-em="1000"
    panose-1="0 0 5 0 0 0 0 0 0 0"
    ascent="800"
    descent="-200"
    cap-height="800"
    bbox="0 -100 900 800"
    underline-thickness="50"
    underline-position="-50"
    unicode-range="U+0020-007A"
  />
<missing-glyph horiz-adv-x="500" 
d="M0 0v700h500v-700h-500zM250 395l170 255h-340zM280 350l170 -255v510zM80 50h340l-170 255zM50 605v-510l170 255z" />
    <glyph glyph-name=".notdef" horiz-adv-x="500" 
d="M0 0v700h500v-700h-500zM250 395l170 255h-340zM280 350l170 -255v510zM80 50h340l-170 255zM50 605v-510l170 255z" />
    <glyph glyph-name="A" unicode="A" horiz-adv-x="900" 
d="M450 800c248 0 450 -202 450 -450s-202 -450 -450 -450s-450 202 -450 450s202 450 450 450zM450 -65c229 0 415 186 415 415s-186 415 -415 415s-415 -186 -415 -415s186 -415 415 -415zM456 520l165 -277c4 -4 0 -8 -4 -11h-4c-3 0 -3 0 -7 3l-154 266l-162 -266
c0 -3 -7 -3 -11 -3c-3 3 -3 7 0 11l165 277s4 3 8 3z" />
    <glyph glyph-name="B" unicode="B" horiz-adv-x="900" 
d="M450 800c248 0 450 -202 450 -450s-202 -450 -450 -450s-450 202 -450 450s202 450 450 450zM450 -65c229 0 415 186 415 415s-186 415 -415 415s-415 -186 -415 -415s186 -415 415 -415zM235 537h140v-140zM523 537h140l-140 -140v140zM482 349c0 -15 -7 -30 -22 -33
v-155c15 -4 22 -15 22 -34c0 -18 -15 -33 -33 -33s-33 15 -33 33c0 19 7 30 22 34v155c-15 3 -22 18 -22 33c0 18 15 37 33 37s33 -19 33 -37z" />
    <glyph glyph-name="C" unicode="C" horiz-adv-x="900" 
d="M450 800c248 0 450 -202 450 -450s-202 -450 -450 -450s-450 202 -450 450s202 450 450 450zM450 -65c229 0 415 186 415 415s-186 415 -415 415s-415 -186 -415 -415s186 -415 415 -415zM543 528l-55 -55l19 -308l-58 -59l-59 59l19 308l-55 55h189z" />
    <glyph glyph-name="D" unicode="D" horiz-adv-x="900" 
d="M450 800c248 0 450 -202 450 -450s-202 -450 -450 -450s-450 202 -450 450s202 450 450 450zM450 -65c229 0 415 186 415 415s-186 415 -415 415s-415 -186 -415 -415s186 -415 415 -415zM575 240h39v-101h-321v101h39l19 188h-41v133h67v-28h21v28h101v-28h21v28h70
v-133h-34zM324 442h252v105h-42v-28h-49v28h-73v-28h-49v28h-39v-105zM346 240h215l-20 185h-175zM600 226h-293v-73h293v73z" />
    <glyph glyph-name="E" unicode="E" horiz-adv-x="900" 
d="M450 800c248 0 450 -202 450 -450s-202 -450 -450 -450s-450 202 -450 450s202 450 450 450zM450 -65c229 0 415 186 415 415s-186 415 -415 415s-415 -186 -415 -415s186 -415 415 -415zM711 314h34c-3 -51 -46 -91 -98 -91c-51 0 -94 40 -97 91h35c2 2 4 5 5 9
c13 36 28 71 42 106l3 6c0 2 -1 5 -4 6c-2 1 -5 1 -7 2c-40 11 -80 21 -120 32c-1 0 -3 1 -5 1c-2 1 -4 0 -5 -2c-7 -9 -16 -16 -28 -18c-2 -1 -3 -3 -3 -5c0 -91 1 -181 1 -271v-15h1v-14c0 -3 -3 -5 -5 -5h-175c-2 0 -5 2 -5 5v9c0 3 3 5 5 5h160c0 3 1 4 1 5
c-1 94 -1 188 -2 282c0 2 -1 4 -3 4c-20 6 -34 24 -34 46c-41 12 -82 23 -123 33c-4 1 -7 -2 -6 -6c0 -1 1 -2 1 -3c13 -33 27 -65 39 -99c3 -8 7 -14 12 -18h28c-3 -51 -46 -91 -98 -91s-94 40 -97 91h28c4 2 6 7 10 17l51 127c3 8 9 8 16 6l114 -30c6 -2 12 -3 18 -5l7 -3
c2 0 4 1 5 3c8 15 24 26 43 26c26 0 48 -22 48 -48c0 -1 -1 -2 -1 -3c0 -3 2 -5 4 -6c45 -11 89 -23 134 -35c10 -2 15 -6 19 -17c16 -42 33 -83 50 -124c0 -1 1 -2 2 -3zM454 469c18 0 33 14 33 32s-15 33 -33 33s-33 -15 -33 -33s15 -32 33 -32zM307 415
c-14 35 -28 68 -42 104c-2 4 -7 4 -9 0c-14 -36 -28 -69 -42 -104c-1 -2 0 -4 2 -6h89c1 2 2 4 2 6zM604 318v-4h87c1 1 1 2 0 3c-13 32 -25 64 -39 97c-1 4 -7 4 -9 0c-13 -33 -26 -65 -39 -96zM326 389h-131c5 -32 32 -56 65 -56c34 0 61 24 66 56zM647 238
c34 0 61 24 66 56h-131c5 -32 32 -56 65 -56zM492 165h146c5 0 9 -4 9 -9c0 -6 -4 -10 -9 -10h-146c-5 0 -9 4 -9 10c0 5 4 9 9 9z" />
    <glyph glyph-name="F" unicode="F" horiz-adv-x="900" 
d="M450 800c248 0 450 -202 450 -450s-202 -450 -450 -450s-450 202 -450 450s202 450 450 450zM450 -65c229 0 415 186 415 415s-186 415 -415 415s-415 -186 -415 -415s186 -415 415 -415zM442 516l-72 65c-3 3 -3 7 0 10c4 4 8 4 11 0l72 -64l65 64c0 4 7 4 11 0v-7
l-72 -71v-72l61 61c0 3 7 3 11 0v-11l-72 -68v-105c0 -3 -4 -7 -7 -7c-4 0 -8 4 -8 7v198zM421 369c0 -4 -4 -7 -7 -7h-252c-3 0 -7 3 -7 7c0 3 4 7 7 7h252c3 0 7 -4 7 -7zM489 376h248c7 0 7 -4 7 -7c0 -4 0 -7 -7 -7h-248c-4 0 -7 3 -7 7c0 3 3 7 7 7zM453 283v28
c40 -3 72 -50 72 -107c0 -58 -36 -108 -75 -108c-40 0 -76 50 -76 108c0 57 32 104 68 107v-28c0 -4 4 -4 8 -4c3 0 3 0 3 4z" />
    <glyph glyph-name="G" unicode="G" horiz-adv-x="900" 
d="M450 800c248 0 450 -202 450 -450s-202 -450 -450 -450s-450 202 -450 450s202 450 450 450zM450 -65c229 0 415 186 415 415s-186 415 -415 415s-415 -186 -415 -415s186 -415 415 -415zM702 351h26c3 0 7 -4 7 -11c0 -3 -4 -7 -7 -7h-25c-2 -63 -51 -114 -117 -114
c-65 0 -118 53 -118 118c0 20 5 40 15 56c-11 6 -20 11 -33 11c-10 0 -21 -3 -28 -11c-2 0 -4 -1 -6 -2c8 -16 13 -34 13 -54c0 -65 -50 -118 -118 -118c-63 0 -115 51 -117 114h-21c-7 0 -11 4 -11 7c0 7 4 11 11 11h22c7 58 57 103 116 103c40 0 74 -18 95 -46
c2 1 3 1 5 3c11 4 25 11 39 11c16 0 29 -6 42 -15c22 29 56 47 94 47c62 0 110 -45 116 -103zM311 244c54 0 93 43 93 93c0 53 -39 92 -93 92c-45 0 -84 -32 -91 -78h52c4 0 32 0 50 -14c11 -8 14 -22 14 -36c0 -4 -3 -7 -7 -7c-7 0 -10 3 -10 7c0 11 -4 18 -8 21
c-14 11 -39 11 -39 11h-53c2 -48 44 -89 92 -89zM586 244c52 0 90 41 92 89h-50h-3s-25 4 -36 -11c-7 -3 -11 -10 -11 -21c0 -4 -3 -7 -7 -7c-7 0 -10 3 -10 7c0 14 7 28 14 36c18 14 50 14 53 14h49c-6 46 -43 78 -91 78c-50 0 -93 -39 -93 -92c0 -50 43 -93 93 -93z" />
    <glyph glyph-name="H" unicode="H" horiz-adv-x="900" 
d="M450 800c248 0 450 -202 450 -450s-202 -450 -450 -450s-450 202 -450 450s202 450 450 450zM450 -65c229 0 415 186 415 415s-186 415 -415 415s-415 -186 -415 -415s186 -415 415 -415zM539 551h40c4 0 7 0 7 -7v-85c0 -6 -3 -6 -7 -6h-40c-4 0 -7 0 -7 6v17h-24v-57
c0 -4 -3 -7 -7 -7h-27v-51h17c3 0 7 -3 7 -7v-230c0 -4 -4 -7 -7 -7h-81c-4 0 -7 3 -7 7v230c0 4 3 7 7 7h13v51h-30c-4 0 -7 3 -7 7v81h-61c-4 0 -4 4 -7 7c0 3 3 7 3 7l72 37h108c4 0 7 -3 7 -7v-17h24v17c0 7 3 7 7 7zM494 537h-98l-44 -23h44c3 0 3 -4 3 -7v-82h95v112z
M572 537h-27v-71h27v71zM532 487v30h-24v-30h24zM464 412h-31v-51h31v51zM484 347h-68v-217h68v217z" />
    <glyph glyph-name="I" unicode="I" horiz-adv-x="900" 
d="M450 800c248 0 450 -202 450 -450s-202 -450 -450 -450s-450 202 -450 450s202 450 450 450zM450 -65c229 0 415 186 415 415s-186 415 -415 415s-415 -186 -415 -415s186 -415 415 -415zM264 542h270c3 0 7 -3 7 -7v-371c0 -3 -4 -7 -7 -7h-270c-3 0 -7 4 -7 7v371
c0 4 4 7 7 7zM576 542h35c3 0 3 0 3 -3v-32s0 -3 -3 -3l-4 3v28h-28v-28s0 -3 -3 -3l-4 3v32c0 3 4 3 4 3zM527 528h-256v-357h256v357zM611 497l3 -4v-273s0 -3 -3 -3h-35v3h-4v270v3h4zM607 490l-28 -4v-262h28v266zM485 469h-168c-4 0 -7 0 -7 3c0 4 3 7 7 7h168
c3 0 3 -3 3 -7c0 -3 0 -3 -3 -3zM485 406h-168c-4 0 -7 3 -7 7c0 3 3 3 7 3h168c3 0 3 0 3 -3c0 -4 0 -7 -3 -7zM485 346h-168c-4 0 -7 4 -7 7c0 0 3 4 7 4h168c3 0 3 -4 3 -4c0 -3 0 -7 -3 -7zM485 287h-168c-4 0 -7 0 -7 3c0 4 3 7 7 7h168c3 0 3 -3 3 -7c0 -3 0 -3 -3 -3
zM485 224h-168c-4 0 -7 3 -7 7c0 3 3 3 7 3h168c3 0 3 0 3 -3c0 -4 0 -7 -3 -7zM597 171l10 35c0 4 4 4 4 4c3 -4 3 -4 3 -7l-14 -42l-3 -4c-4 0 -4 0 -4 4l-17 42c0 3 0 3 3 7c0 0 4 0 4 -4z" />
    <glyph glyph-name="J" unicode="J" horiz-adv-x="900" 
d="M450 800c248 0 450 -202 450 -450s-202 -450 -450 -450s-450 202 -450 450s202 450 450 450zM450 -65c229 0 415 186 415 415s-186 415 -415 415s-415 -186 -415 -415s186 -415 415 -415zM555 460h79c4 0 7 -3 7 -7v-114c0 -3 -3 -6 -7 -6h-366c-4 0 -7 3 -7 6v114
c0 4 3 7 7 7h79v56c0 7 7 10 11 10h186c7 0 11 -3 11 -10v-56zM368 460h166v45h-166v-45zM627 447h-352v-101h352v101zM634 322c4 0 7 -3 7 -7v-131c0 -3 -3 -7 -7 -7h-366c-4 0 -7 4 -7 7v131c0 4 3 7 7 7c3 0 7 -3 7 -7v-124h352v124c0 4 4 7 7 7zM334 319c3 0 6 -4 6 -7
v-24h25v24c0 3 0 7 3 7c4 0 7 -4 7 -7v-31c0 -4 -3 -4 -7 -4h-34c-4 0 -4 0 -4 4v31c0 3 0 7 4 7zM527 319c3 0 7 -4 7 -7v-24h24v24c0 3 4 7 7 7c0 0 3 -4 3 -7v-31c0 -4 -3 -4 -3 -4h-38s-3 0 -3 4v31c0 3 3 7 3 7z" />
    <glyph glyph-name="K" unicode="K" 
 />
    <glyph glyph-name="L" unicode="L" 
 />
    <glyph glyph-name="M" unicode="M" 
 />
    <glyph glyph-name="N" unicode="N" 
 />
    <glyph glyph-name="O" unicode="O" 
 />
    <glyph glyph-name="P" unicode="P" 
 />
    <glyph glyph-name="Q" unicode="Q" 
 />
    <glyph glyph-name="R" unicode="R" 
 />
    <glyph glyph-name="S" unicode="S" 
 />
    <glyph glyph-name="T" unicode="T" 
 />
    <glyph glyph-name="U" unicode="U" 
 />
    <glyph glyph-name="V" unicode="V" 
 />
    <glyph glyph-name="W" unicode="W" 
 />
    <glyph glyph-name="X" unicode="X" 
 />
    <glyph glyph-name="Y" unicode="Y" 
 />
    <glyph glyph-name="Z" unicode="Z" 
 />
    <glyph glyph-name="a" unicode="a" 
 />
    <glyph glyph-name="b" unicode="b" 
 />
    <glyph glyph-name="c" unicode="c" 
 />
    <glyph glyph-name="d" unicode="d" 
 />
    <glyph glyph-name="e" unicode="e" 
 />
    <glyph glyph-name="f" unicode="f" 
 />
    <glyph glyph-name="g" unicode="g" 
 />
    <glyph glyph-name="h" unicode="h" 
 />
    <glyph glyph-name="i" unicode="i" 
 />
    <glyph glyph-name="j" unicode="j" 
 />
    <glyph glyph-name="k" unicode="k" 
 />
    <glyph glyph-name="l" unicode="l" 
 />
    <glyph glyph-name="m" unicode="m" 
 />
    <glyph glyph-name="n" unicode="n" 
 />
    <glyph glyph-name="o" unicode="o" 
 />
    <glyph glyph-name="p" unicode="p" 
 />
    <glyph glyph-name="q" unicode="q" 
 />
    <glyph glyph-name="r" unicode="r" 
 />
    <glyph glyph-name="s" unicode="s" 
 />
    <glyph glyph-name="t" unicode="t" 
 />
    <glyph glyph-name="u" unicode="u" 
 />
    <glyph glyph-name="v" unicode="v" 
 />
    <glyph glyph-name="w" unicode="w" 
 />
    <glyph glyph-name="x" unicode="x" 
 />
    <glyph glyph-name="y" unicode="y" 
 />
    <glyph glyph-name="z" unicode="z" 
 />
    <glyph glyph-name="space" unicode=" " 
 />
  </font>
</defs>
</svg>
